<?xml version="1.0" standalone="no"?> <!DOCTYPE svg PUBLIC "-//W3C//DTD SVG 1.0//EN" "http://www.w3.org/TR/2001/REC-SVG-20010904/DTD/svg10.dtd" > <svg xmlns="http://www.w3.org/2000/svg" width="100%" height="100%">
<defs >
<font horiz-adv-x="887" ><font-face
    font-family="ChrisMcCormickTwentyEleven"
    units-per-em="2048"
    panose-1="3 0 6 0 0 0 0 0 0 0"
    ascent="2506"
    descent="-769"
    alphabetic="0" />
<missing-glyph horiz-adv-x="1434" d="M60 0V1797H1354V0H60ZM140 80H1274V1717H140V80Z" />
<glyph unicode=" " glyph-name="space" horiz-adv-x="633" />
<glyph unicode="!" glyph-name="exclam" horiz-adv-x="495" d="M261 1938H332L356 1927Q356 1938 367 1938Q415 1835 415 1808Q403 1808 403 1797Q415 1797 415 1785Q382 1785 356 1572L332 1560L344 1536V1525Q344 1501 320 1501Q320 1489 332 1489Q314 1335
296 1335Q296 1324 308 1324L261 1016Q285 1013 285 993V981H261V969L285 933V910Q269 910 226 851Q190 851 190 815Q143 821 143 851L119 839Q119 860 95 898Q122 1014 143 1040Q143 1052 131 1052Q131 1075 202 1489Q190 1512 190 1525Q214 1525 237 1832V1879Q261
1909 261 1938ZM249 378Q344 326 344 260Q329 260 285 141Q243 130 237 130V141L214 130Q60 164 60 248Q122 378 249 378Z" />
<glyph unicode="&quot;" glyph-name="quotedbl" horiz-adv-x="648" d="M155 1950Q261 1950 261 1785L202 1501Q214 1455 214 1406V1383Q190 1383 190 1359Q97 1359 84 1454H60Q60 1480 72 1501Q60 1522 60 1548L72 1572L60 1596Q100 1652 119 1832H60V1844Q119
1920 119 1938L143 1927L155 1950ZM462 1903H486Q486 1871 521 1832Q521 1820 509 1820L521 1761V1678Q521 1666 509 1666Q521 1607 533 1607L521 1584L533 1501H509Q523 1482 533 1383L557 1395H568V1347Q548 1347 509 1324Q465 1324 403 1406V1430L415 1454Q379
1454 379 1477V1525L367 1666H379L367 1690V1702Q390 1844 450 1844L438 1867V1879Q462 1879 462 1903Z" />
<glyph unicode="#" glyph-name="numbersign" horiz-adv-x="1393" d="M1018 1737H1041Q1041 1710 1100 1702Q1136 1668 1136 1631Q1127 1560 1112 1560L1124 1536Q1096 1442 1089 1442L1100 1418Q1070 1353 1041 1170Q1053 1147 1053 1134Q1098 1139 1136 1205Q1157
1217 1183 1217Q1183 1199 1301 1123V1064Q1281 1064 1242 1028Q1242 1040 1230 1040L1242 1016V1004L1159 993L1136 1004Q1115 993 1089 993H1065L1041 1004Q1041 969 1029 969L1041 945L1029 863H1053L1124 851Q1156 871 1278 886Q1278 857 1313 827V744Q1302
744 1219 721H1207Q1195 721 1195 733Q1183 733 1183 721L1029 744L1018 697L1029 591H1018L1029 567V472L1053 260Q998 224 958 224Q876 425 876 449Q903 449 923 520Q899 566 899 650V709L888 733Q675 693 675 626V614L627 638Q605 626 592 626Q592 587 604 567L592
520Q592 497 616 437L604 413Q616 373 616 212Q596 212 568 153Q556 153 533 141Q469 141 450 212Q426 212 426 236V366Q426 378 438 378L426 401V496Q426 508 438 508Q438 534 344 602Q214 588 214 555Q177 555 95 591Q78 591 60 626V650Q68 744 178 744L237 733Q351
756 415 803H450L438 827Q450 976 474 1016Q455 1016 426 1040Q415 1004 403 1004L379 1016L273 969Q201 969 166 1052Q166 1134 308 1158H332V1146Q380 1170 403 1170L426 1158Q449 1170 462 1170Q462 1158 474 1158L486 1241H415Q499 1392 580 1714H651Q670 1714
698 1631H710Q710 1619 698 1619L710 1596Q663 1538 604 1170H675Q852 1167 852 1146L876 1158H888L911 1146Q935 1489 958 1489Q958 1501 947 1501Q947 1567 1018 1737ZM604 1040Q604 957 592 957L604 933V898L592 839Q787 886 899 886H911L899 969Q911 969 911
981Q874 1014 663 1028Q642 1016 616 1016V1040H604Z" />
<glyph unicode="$" glyph-name="dollar" horiz-adv-x="1109" d="M639 2080Q698 2073 698 2009Q645 1752 616 1714Q663 1711 663 1690Q675 1690 675 1702Q717 1702 758 1666Q780 1678 793 1678Q917 1585 935 1560Q1004 1430 1029 1430Q1029 1324 970 1324V1335Q904
1381 876 1430H852L864 1454Q725 1548 627 1548Q604 1507 557 1265V1205Q698 981 698 744V709H687Q687 697 698 697Q698 517 497 366Q497 275 379 260Q333 295 308 295L332 378H308Q226 378 226 401L202 390Q156 408 119 461Q81 461 60 532H84L72 614Q84 637 84
650Q72 650 72 662Q95 662 95 685H155V626Q155 614 143 614Q167 532 285 532H344Q356 554 356 567L332 579Q367 962 403 1123L391 1146V1158L403 1182Q230 1295 131 1383H119V1395L143 1430Q72 1430 72 1548Q112 1624 178 1666V1690H190Q202 1690 202 1678Q261
1714 285 1714V1702L391 1726L462 1714H486Q502 1938 545 1938L533 1962V1974H557L545 1997V2057Q620 2080 639 2080ZM214 1489Q214 1442 273 1442L261 1418Q403 1331 403 1312Q426 1312 438 1406L426 1430Q450 1469 450 1501V1572H438Q308 1572 214 1489ZM497
898L509 874L497 851Q509 830 509 803Q462 754 462 638Q474 573 474 543H486Q531 543 568 733L557 756L568 780Q568 798 533 957Q513 957 497 898Z" />
<glyph unicode="%" glyph-name="percent" horiz-adv-x="1310" d="M651 1879H663L793 1820Q793 1808 805 1785Q805 1453 568 1253Q515 1253 497 1241Q363 1279 308 1371Q273 1542 273 1548L285 1572Q273 1595 273 1607Q273 1746 474 1820Q568 1820 651 1879ZM1124
1844H1148Q1165 1844 1183 1808V1749H1195Q1195 1707 1148 1655Q1159 1655 1159 1643Q1081 1584 1065 1584Q1065 1596 1053 1596Q1053 1552 958 1454Q915 1331 852 1300Q852 1267 805 1205Q805 1188 734 1087Q683 977 627 933Q627 898 568 815L379 532Q309 467
249 342Q226 342 166 319Q60 331 60 413Q147 520 155 520Q155 529 237 650Q243 650 426 898Q551 1023 805 1454Q822 1454 994 1737Q1018 1773 1041 1773L1029 1797V1820Q1041 1820 1124 1844ZM521 1678Q498 1690 486 1690Q435 1652 415 1584Q415 1406 497 1406Q595
1440 651 1607Q651 1675 663 1690Q654 1690 604 1714Q545 1678 521 1678ZM1029 792V780L1053 792Q1230 792 1230 614Q1062 390 1041 390Q858 283 793 283H734L616 295L627 319Q533 319 533 413V449Q533 552 687 662Q743 662 828 721H840L876 697Q876 792 1029 792ZM1006
709V662H1029V602Q994 564 994 543H958L923 567H911Q885 567 864 555L840 567Q801 543 769 543H734Q687 472 687 413L746 401Q828 401 828 437L852 425L1018 555Q1077 638 1077 662H1065Q1041 662 1041 709H1006Z" />
<glyph unicode="&amp;" glyph-name="ampersand" horiz-adv-x="1275" d="M698 1997Q698 1981 746 1950Q769 1873 769 1844V1820Q769 1624 651 1395L580 1205Q608 993 651 993H663Q766 1084 947 1182Q947 1201 1041 1217Q1141 1217 1183 1158H1195V1111Q1154 1099
1148 1099Q1139 1099 1077 1111Q1025 1094 982 1064L958 1075V1064H970Q970 1028 793 945Q793 907 710 886Q687 848 687 827Q687 794 769 650Q828 616 828 555Q863 501 935 449Q958 406 958 354Q935 354 935 331H840Q840 348 734 413Q568 658 568 756Q443 713 391
650L367 662Q365 621 155 579Q155 567 119 567L72 626H60Q60 737 285 1004Q329 1096 415 1158Q450 1222 450 1265L438 1371L450 1430Q450 1442 438 1442Q474 1746 568 1927Q622 1997 698 1997ZM486 1052Q486 1018 391 945Q391 923 308 874Q308 834 273 768H320Q320
792 497 886L521 910Q486 1010 486 1016L497 1040V1052H486Z" />
<glyph unicode="&apos;" glyph-name="quotesingle" horiz-adv-x="294" d="M155 1879Q188 1879 214 1797Q202 1761 190 1761L202 1702V1666Q202 1655 190 1655Q202 1632 202 1619Q202 1599 178 1548Q190 1528 190 1501Q190 1477 166 1477L178 1454V1418L166 1359L107
1371H60V1395Q84 1395 84 1406Q84 1430 72 1430L84 1513Q84 1592 60 1702H72L60 1726V1844L155 1879Z" />
<glyph unicode="(" glyph-name="parenleft" horiz-adv-x="625" d="M376 1542H400V1530L388 1506Q424 1494 460 1482V1400Q294 1314 294 1198Q224 1098 224 902V890H200V844L212 784H200L212 760V750H188L200 726V642Q200 630 188 630Q224 462 282 300Q282 194
460 98L542 88V52Q506 52 506 16H494Q484 16 484 28Q459 15 448 16Q390 19 342 52Q320 40 294 40L224 122Q152 228 82 512H92Q70 572 70 596H82Q70 702 58 702L70 760V890Q88 1140 128 1140Q128 1152 116 1152Q164 1398 224 1422Q274 1482 354 1518Q356 1542 376
1542Z" />
<glyph unicode=")" glyph-name="parenright" horiz-adv-x="589" d="M124 1620H159Q186 1602 301 1572Q490 1399 490 958Q502 826 502 615Q434 194 337 118Q281 56 159 24V12L136 24H77Q77 47 53 47Q53 133 207 165Q207 201 254 236Q275 292 295 347L289 389Q313
431 337 473L367 545Q370 546 385 587Q395 613 385 647Q376 678 379 695Q379 695 372 740Q372 748 372 755T372 769Q372 782 372 782Q374 805 367 833Q361 857 361 875Q339 935 337 1055Q348 1076 348 1102V1114L337 1182H348Q325 1231 325 1253H337Q337 1328 195
1466Q98 1513 77 1513V1560Q108 1619 124 1620Z" />
<glyph unicode="*" glyph-name="asterisk" horiz-adv-x="1074" d="M793 1643Q876 1615 876 1596Q876 1584 864 1584L876 1560V1525L828 1454V1442Q857 1442 911 1418V1383Q911 1371 899 1371L911 1347Q788 1170 758 1170V1111L746 1087Q781 1087 781 1075L805
1087Q872 1058 899 1028L923 1040H935Q935 1020 994 981V969Q793 941 793 922Q817 918 817 898Q805 877 805 851Q823 851 864 744V733L852 709Q876 705 876 685Q852 685 852 626L817 650V626H769V650L781 673Q734 673 734 733H722L698 721L710 697V638H651V650L663
673L651 697L663 721Q627 784 604 933H580Q580 906 521 874Q450 823 450 792Q308 813 308 851V922Q391 941 391 981L367 969H356Q344 969 344 981Q332 981 332 969L214 981H119Q60 1011 60 1075V1099L178 1146V1134Q190 1134 190 1146L249 1134Q262 1134 285 1146L344
1111V1146Q383 1123 415 1123H474V1134Q343 1286 320 1383L296 1395Q317 1525 426 1525Q462 1497 509 1347Q527 1347 604 1265L592 1241Q604 1220 604 1194H627V1217Q682 1631 781 1631Q781 1643 793 1643Z" />
<glyph unicode="+" glyph-name="plus" horiz-adv-x="1263" d="M651 1489Q678 1489 698 1406H710Q698 1347 687 1347L698 1324V1229Q698 1217 687 1217L698 1194Q691 1099 675 1099Q687 1076 687 1064L675 1004L758 1016H1100Q1112 1016 1171 945L1159 922Q1183
918 1183 898Q1168 839 1148 839Q1037 874 852 874Q814 874 675 851Q675 863 663 863V839Q663 827 675 827Q667 733 651 733L663 709V449Q639 401 592 401V413L568 401Q561 401 486 449L497 508Q497 609 509 827Q521 827 521 839Q273 815 273 780L214 792Q214 768
190 768H155Q98 768 60 839Q60 876 107 933V945H84V969Q95 1004 155 1004H166Q184 1004 202 957Q273 957 509 1004H533Q557 1303 557 1347Q545 1347 545 1359L521 1347H486V1359Q592 1489 616 1489H651Z" />
<glyph unicode="," glyph-name="comma" horiz-adv-x="518" d="M320 153Q423 153 438 23Q403 23 379 -83Q304 -166 285 -225Q187 -402 119 -402H95Q95 -376 60 -308Q96 -308 119 -261Q155 -190 178 -190L166 -166Q218 -97 273 23V94Q300 94 320 141V153Z" />
<glyph unicode="-" glyph-name="hyphen" horiz-adv-x="1015" d="M554 901H744Q892 848 920 818Q944 814 944 794V652Q872 652 814 723H484V712L460 723H366Q164 723 164 676Q150 676 70 759V794Q70 877 152 877V889H164Q164 865 176 865T188 877L246 865H306L366
877Q366 865 376 865Q380 889 400 889H448Q460 889 460 877Q502 901 554 901Z" />
<glyph unicode="." glyph-name="period" horiz-adv-x="447" d="M273 307Q344 283 344 224Q367 224 367 165V141Q367 82 344 82L356 59Q356 -12 143 -12Q60 11 60 94L95 118Q95 130 84 130L95 189Q84 204 84 248Q131 248 131 271Q119 271 119 283H143L166 271Q204
290 273 307Z" />
<glyph unicode="/" glyph-name="slash" horiz-adv-x="1180" d="M1050 1493Q1078 1493 1097 1399Q1088 1328 1026 1328Q1026 1310 932 1174Q932 1147 849 1056Q849 1014 778 961Q778 918 483 476Q447 453 234 63Q180 27 140 27L128 51L104 39H81Q57 114 57 134Q59
161 140 240Q206 379 400 630Q656 993 920 1434Q920 1493 1050 1493Z" />
<glyph unicode="0" glyph-name="zero" horiz-adv-x="1251" d="M580 1631H651Q840 1569 840 1454Q876 1454 876 1371H888Q908 1371 958 1454Q989 1489 1018 1489Q1006 1505 1006 1548Q1022 1548 1065 1596Q1127 1596 1171 1525Q1148 1525 1148 1513L1159 1489Q1012
1259 935 1182Q947 1100 958 1075H935Q947 887 947 851Q935 728 935 709L947 685Q828 314 769 307Q746 307 710 248Q629 201 568 201H497Q462 224 415 236Q415 224 403 224Q403 256 332 271Q320 294 320 307H296Q257 153 214 153V130H143Q124 130 72 224Q100 257
119 319Q163 319 202 425Q60 683 60 898Q60 1098 237 1288L426 1406Q503 1507 533 1572Q580 1584 580 1631ZM533 1418Q556 1406 568 1406V1335Q549 1335 509 1276Q459 1276 332 1170V1158L308 1170Q202 925 202 910Q214 887 214 874Q214 862 202 839Q214 682 273
543V520Q343 578 403 685Q462 721 462 780Q474 780 557 910Q568 910 658 1030Q678 1037 698 1045L710 1075H698Q698 1094 805 1217V1241L793 1265L805 1288L722 1489V1501L698 1489H687Q687 1536 627 1536Q548 1469 533 1418ZM781 981L793 957V945Q759 945 722
863Q706 861 557 650Q526 572 438 484Q438 464 403 413L391 390Q468 372 497 319Q635 319 734 484Q778 597 793 756H805L793 803Q805 921 805 981H781Z" />
<glyph unicode="1" glyph-name="one" horiz-adv-x="707" d="M308 1749H403Q438 1749 450 1536H438L450 1513V1477Q450 1448 415 1335L438 1288Q415 1284 415 1265V1205L426 1182Q403 1178 403 1158V1146L415 1123H391L426 1075Q403 1072 403 1052V1040L415 1016H391L403
993V969Q403 957 391 957L403 933V910L391 886H403Q403 898 415 898V874Q415 851 391 851Q415 790 415 756Q403 735 403 709Q415 709 415 697H391L403 673V650Q403 638 391 638L403 614V591L391 567H403Q403 579 415 579V555Q415 532 391 532Q415 471 415 437V307Q580
271 580 212Q596 212 627 153V82H604L545 94Q545 82 533 82Q533 118 474 118H438Q438 153 320 153H178Q145 153 72 201V224Q72 251 107 307V319H166L190 307V331L214 319H273V662Q273 673 285 673L273 697V981Q273 993 285 993L273 1016V1052Q273 1091 285 1111Q285
1123 273 1146Q287 1359 296 1418H273Q237 1324 214 1324Q193 1312 166 1312Q119 1312 60 1383V1454Q69 1454 131 1477V1489L119 1513Q228 1591 308 1749Z" />
<glyph unicode="2" glyph-name="two" horiz-adv-x="1310" d="M627 1655L651 1643H769Q982 1608 982 1525Q1018 1465 1018 1430V1418Q1018 1367 994 1324Q1006 1301 1006 1288Q992 1286 876 1016Q836 1016 817 945Q663 749 663 721Q635 721 604 673Q585 673 533
591Q478 575 474 543L497 532Q529 555 675 579V567Q748 591 769 591V579L793 591H852Q864 591 864 579L888 591H947Q1045 591 1195 401Q1230 325 1230 283V271Q1230 248 1207 248H1195Q1195 280 994 425Q930 437 888 437H876L734 425V437Q592 410 592 401V390H580Q568
390 568 401Q294 326 143 236H131V260L107 248H95Q95 272 60 319V354Q70 397 214 449Q214 472 332 543Q556 814 580 815Q580 861 746 1064Q876 1311 876 1406Q876 1485 746 1501Q607 1501 509 1371Q479 1371 438 1288Q415 1288 415 1265H403L379 1276V1253Q317
1253 261 1324Q261 1405 367 1477Q426 1584 616 1631Q627 1631 627 1655Z" />
<glyph unicode="3" glyph-name="three" horiz-adv-x="1038" d="M367 1619Q379 1619 379 1607Q392 1607 415 1619Q627 1619 627 1560L651 1572Q805 1532 805 1489Q913 1489 958 1300V1241Q958 1054 828 993Q828 983 734 945Q828 741 828 721V709Q828 696 817 673Q828
608 828 579Q821 484 793 484Q793 472 805 472Q805 305 486 224H415Q415 189 391 189Q329 201 320 201L237 189Q237 199 107 260Q107 272 95 295Q165 451 308 508H320Q320 496 332 496L426 567H497V520Q345 406 320 366V354Q324 331 344 331V354H367Q494 354 592
425Q656 425 687 614L675 685V733Q651 733 651 744L663 768Q625 874 604 874Q604 1006 805 1111L828 1194V1288H805L817 1312Q698 1383 580 1430Q557 1418 545 1418L521 1430Q500 1418 474 1418V1430Q466 1418 273 1406V1383L285 1359H273L249 1371Q219 1371 190
1265L166 1253H143Q119 1253 119 1276L131 1300V1324H119V1288H84V1324Q84 1335 95 1335L60 1477Q60 1559 367 1619Z" />
<glyph unicode="4" glyph-name="four" horiz-adv-x="979" d="M285 1678Q299 1678 379 1643V1607Q379 1581 391 1560L344 1347H332V1300Q332 1249 285 1194Q266 957 226 957L237 933V910Q237 898 226 898L237 874V851L226 827Q367 815 367 803L391 815L450 803L438
827Q473 1123 533 1123L616 1182Q651 1170 651 1111V1087H627L639 1064Q592 860 592 803Q672 803 710 744Q778 744 840 662Q879 662 899 543Q858 532 852 532Q769 552 769 614H758V591H746L651 650H592Q584 555 568 555L580 532L557 472L568 401Q557 401 557 390H568L557
366Q616 248 616 118L580 94H557Q557 118 509 118L521 141Q451 186 415 366Q403 430 403 472L415 662H308Q155 678 84 733Q69 733 60 780Q95 1075 166 1312L155 1335Q190 1398 190 1501Q166 1540 166 1572V1619H178Q190 1619 190 1607L273 1678H285Z" />
<glyph unicode="5" glyph-name="five" horiz-adv-x="991" d="M403 1690L486 1678H616V1655L698 1666Q769 1622 769 1607V1548Q663 1479 663 1454Q591 1517 521 1536L497 1525Q409 1548 391 1548Q237 1548 237 1371Q214 1367 214 1347Q237 1344 237 1324Q226 1303
226 1276Q245 1276 273 1087Q360 1016 403 1016Q426 1028 438 1028V1016Q521 1040 663 1052Q667 1028 687 1028L758 1040Q911 920 911 780Q911 622 769 413Q762 413 663 271Q639 271 604 212Q445 153 379 153Q206 283 143 354Q72 354 60 496Q84 534 84 555H119Q195
555 249 484Q276 484 296 401Q367 355 367 319H450Q522 319 627 425Q793 658 793 768L746 910L391 851Q278 887 178 1016Q121 1091 95 1312Q119 1312 119 1324Q119 1335 107 1335Q107 1643 261 1643Q261 1669 403 1678V1690Z" />
<glyph unicode="6" glyph-name="six" horiz-adv-x="897" d="M415 1666Q514 1643 675 1643L781 1548V1501Q769 1465 710 1465H663Q613 1513 568 1513H486V1536H474Q474 1489 426 1489L438 1465V1454Q373 1454 296 1265Q281 1265 249 1158Q226 1158 214 1075Q226
998 226 922Q316 1004 391 1004Q617 1004 675 898Q707 898 734 792Q750 791 793 626Q781 605 781 579Q807 579 817 472H805L817 449Q817 437 805 437L817 413V390L793 354Q805 331 805 319Q793 283 781 283L793 260V201Q739 201 675 94Q635 127 415 153L403 177L379
165H367Q367 180 296 224Q95 424 95 543Q95 602 60 673Q60 685 72 685L60 756Q60 950 95 1004Q72 1004 72 1028V1087Q104 1252 202 1406Q266 1467 379 1655Q392 1655 415 1666ZM367 898Q367 881 261 744L273 721Q237 675 237 650Q237 637 249 614Q249 591 226 532Q243
532 285 461Q399 309 521 260Q521 248 533 248L557 260Q577 248 604 248Q651 248 663 472Q651 495 651 508H663Q585 816 557 839Q533 863 438 898Q415 886 403 886Q380 898 367 898Z" />
<glyph unicode="7" glyph-name="seven" horiz-adv-x="1157" d="M226 1631Q303 1619 379 1619Q406 1619 426 1631Q836 1572 935 1548Q935 1525 1053 1513L1041 1489Q1058 1489 1077 1454V1395Q1006 1345 1006 1312L876 1111H864L876 1087L758 839V803H746L758 780Q758
756 734 756L746 733L698 614V543Q666 342 639 342L651 319Q593 177 580 177H568L545 189V153H533Q403 153 403 271Q426 271 426 295V354Q458 354 486 520Q545 728 663 1028Q663 1064 793 1288Q864 1387 864 1406Q771 1424 722 1454L698 1442Q563 1465 509 1465Q486
1454 474 1454L391 1477V1465L403 1442L320 1430Q202 1454 131 1489Q108 1477 95 1477L60 1536V1584L131 1619V1607Q204 1631 226 1631Z" />
<glyph unicode="8" glyph-name="eight" horiz-adv-x="1263" d="M947 1737Q950 1714 970 1714H1041Q1041 1693 1124 1643Q1183 1567 1183 1513Q1183 1486 1171 1465Q1183 1445 1183 1418Q1140 1220 947 1028Q856 945 817 945V933L958 898H994Q994 880 1029 851V827Q931
812 888 780Q865 780 805 803Q784 756 758 756V733Q805 531 876 366L864 342L876 319Q864 298 864 271L888 236V201H864V130Q864 106 840 106H746V118L758 141Q746 141 746 153L722 141H710Q579 141 509 271L450 366Q425 366 332 520L249 733H226Q226 697 202 697H178L143
721H107Q107 744 60 744V803Q135 898 190 898Q196 898 320 933V922Q375 953 545 981V1016Q509 1062 509 1087L521 1146Q497 1146 497 1170Q497 1182 509 1182L497 1205V1265Q497 1276 509 1276Q497 1299 497 1312Q497 1513 557 1525Q545 1548 545 1560Q636 1726
852 1726Q864 1726 864 1714Q924 1737 947 1737ZM663 1442L675 1418L639 1347L651 1324L639 1276Q651 1256 651 1229H639Q651 1206 651 1194Q651 1182 639 1182L651 1123V1028H675Q675 1076 793 1099L781 1123Q844 1123 899 1217Q990 1347 1006 1347L994 1371V1395Q1013
1395 1029 1418Q1029 1598 864 1619Q698 1582 698 1501Q687 1501 663 1442ZM545 780Q545 763 509 744H474Q474 733 379 697V650L521 461Q521 472 533 472Q533 431 604 366L580 331Q616 331 698 248Q698 363 710 366Q684 366 663 496Q636 620 616 662V673L639 709Q604
709 604 744Q604 780 545 780Z" />
<glyph unicode="9" glyph-name="nine" horiz-adv-x="814" d="M639 1690Q734 1690 734 1607L722 1584L734 1560Q698 1504 687 1442Q698 1419 698 1406Q675 1406 604 1111Q592 1111 592 1099Q604 1076 604 1064Q580 1064 580 1028Q580 792 557 792Q557 780 568 780Q557
543 533 449Q533 437 545 437Q533 295 521 295Q533 287 545 82H521L533 59V47Q497 47 497 11H438Q403 104 403 130L438 331H415Q450 655 450 697V827Q450 839 462 839L450 863Q462 943 462 993V1004H438Q438 956 379 933H273Q72 1044 72 1217L60 1288H72Q72 1300
60 1300Q99 1631 273 1631V1619L344 1655Q426 1631 426 1619L450 1631Q480 1631 580 1596V1655Q580 1675 639 1690ZM296 1525L202 1395H190L202 1371V1347Q202 1312 190 1312L202 1253V1158Q222 1111 249 1111L237 1087Q296 1052 332 1052H344V1075L367 1064Q367
1084 426 1146Q474 1210 545 1454Q438 1454 438 1513L415 1501H403L367 1525Q344 1513 332 1513Q309 1525 296 1525Z" />
<glyph unicode=":" glyph-name="colon" horiz-adv-x="436" d="M244 1355H315Q346 1307 363 1307Q339 1189 327 1189L339 1166V1142Q315 1086 233 1036H209L197 1059L173 1047H162Q123 1083 102 1083L114 1142L102 1189H126L114 1213Q114 1278 221 1296Q244 1316
244 1355ZM244 645Q327 604 327 551Q351 547 351 527V515H327V456L315 433Q327 433 327 421Q303 421 303 409L315 326Q251 294 246 294Q245 294 216 291T186 288T156 298T126 308Q98 332 67 385Q102 454 102 504Q91 504 91 515Q121 515 162 610Q185 610 185 634Q197
634 197 622L244 645Z" />
<glyph unicode=";" glyph-name="semicolon" horiz-adv-x="459" d="M255 1347Q255 1288 314 1288Q362 1255 385 1181H362L373 1158V1099Q373 1063 232 1051Q209 1063 196 1063Q196 1051 184 1051Q184 1082 113 1122Q90 1210 90 1240Q90 1278 208 1335Q208 1300
232 1300Q232 1347 255 1347ZM200 622H283Q283 595 330 563Q330 527 294 527L306 457L150 60Q95 25 67 25H44Q44 37 56 37Q46 62 32 167Q87 167 141 421Q129 421 129 433H153V480L164 551Q153 574 153 587L200 622Z" />
<glyph unicode="&lt;" glyph-name="less" horiz-adv-x="1275" d="M878 1629L902 1617Q922 1629 948 1629H960Q960 1593 996 1593H1008V1511Q968 1452 878 1452V1475H866Q842 1475 842 1440H818V1463H808Q808 1445 712 1404L688 1416Q688 1333 618 1333Q618 1345
606 1345Q606 1307 488 1180Q470 1180 440 1132H428L440 1109Q358 1022 346 955Q310 955 310 943Q322 920 322 908L252 790Q252 779 452 648Q524 623 630 553Q969 328 1008 328Q1008 293 1080 281Q1104 210 1174 210V187L1186 116Q1168 45 1114 45V57L1090 45H1080Q1080
109 890 163Q890 178 736 258Q736 297 666 317Q560 423 512 423L204 589Q176 589 146 636Q102 636 62 695L50 766V778Q100 822 192 991Q192 1034 382 1298Q428 1329 488 1416Q530 1416 548 1463L630 1534Q696 1587 866 1617Q866 1629 878 1629Z" />
<glyph unicode="=" glyph-name="equal" horiz-adv-x="932" d="M102 1299H221V1276Q308 1276 457 1240Q469 1240 469 1252Q534 1240 563 1240Q586 1252 599 1252V1240Q702 1255 753 1276Q835 1260 835 1240Q823 1219 823 1193H847V1169Q815 1169 800 1098Q770 1027
705 1027H670V1051L717 1098V1110H705L634 1098L587 1122Q587 1098 563 1098H433Q421 1098 421 1110L398 1098L374 1110Q362 1110 362 1098Q232 1110 209 1134L173 1110Q157 1110 114 1169L126 1193H114Q114 1181 102 1181L90 1240L102 1299ZM102 720L150 602Q161
602 232 661H386V637L421 661Q445 657 445 637L469 649Q835 505 835 448V436Q823 401 764 401Q752 401 729 413Q717 413 717 401L433 483Q410 472 398 472Q385 472 362 483Q325 483 161 436Q90 510 90 543Q108 543 126 590Q102 595 79 649H90Q113 637 126 637Q55
691 55 720H102Z" />
<glyph unicode="&gt;" glyph-name="greater" horiz-adv-x="1145" d="M180 1576H276Q294 1576 322 1528H310Q310 1490 428 1470Q428 1458 440 1458Q440 1470 452 1470Q492 1432 700 1364Q700 1348 796 1292Q796 1228 960 1186Q960 1152 1068 1044V986Q1044 986
972 844L926 808Q758 612 700 572L712 548Q656 548 618 500Q600 496 488 346Q460 346 428 300Q294 203 288 158Q287 151 240 122Q252 100 252 86Q193 62 170 62Q169 62 168 62Q86 62 74 122H62V158Q62 184 288 370Q288 384 382 464Q382 478 500 572Q668 726 878
974Q878 1032 712 1162Q690 1200 570 1234L560 1256L536 1246H524Q524 1290 298 1328L168 1434L158 1506H168L158 1528Q180 1558 180 1576Z" />
<glyph unicode="?" glyph-name="question" horiz-adv-x="755" d="M379 1785L403 1773Q412 1773 474 1785Q583 1785 651 1666H663V1572L675 1501Q625 1332 580 1229Q512 1077 415 1004L391 933Q403 913 415 827H403L462 673Q418 608 367 591H332Q280 614 249 650L261
697L226 1028Q248 1082 273 1087H308Q446 1196 521 1560V1584Q521 1606 462 1655Q297 1643 84 1572V1584Q84 1596 95 1596L60 1655V1666Q77 1666 107 1714L308 1773L379 1785ZM486 283Q533 135 533 94Q533 19 486 -48L474 -95L450 -83Q395 -119 356 -119Q356 -83
308 -60Q308 -28 237 -12H226V47Q226 59 273 82Q273 95 261 118Q299 283 415 283H486Z" />
<glyph unicode="@" glyph-name="at" horiz-adv-x="1169" d="M652 1631Q672 1619 699 1619Q722 1631 735 1631V1619L758 1631H817Q876 1608 876 1584H888V1608H900Q950 1537 1006 1537Q1006 1508 1054 1430Q1042 1430 1042 1418Q1066 1415 1066 1395V1383Q1066
1371 1054 1371L1066 1348V1265Q1066 1241 1042 1241L1054 1217V1170Q1054 1147 1030 1147L1042 1123Q1042 1081 1006 1005V969Q980 842 865 745Q743 733 664 685Q624 685 604 674Q356 719 356 816Q344 816 333 851Q377 1087 451 1087Q451 1162 569 1170V1158L746
1194Q746 1170 782 1170V1099L841 1076Q817 963 817 934L841 922L900 1111Q900 1144 935 1253Q924 1276 924 1288Q935 1288 935 1300L959 1288H971V1300Q932 1300 912 1454Q756 1525 746 1525L723 1513L699 1525L628 1489H616Q604 1489 604 1501Q533 1474 451 1418Q285
1287 285 1253Q179 1102 179 981Q179 963 155 934Q167 913 167 886H155L179 792L167 768Q167 720 415 425Q554 331 664 331Q820 331 959 449Q959 461 1030 473V461Q1030 387 912 295Q862 248 805 248L817 224L699 213H616Q344 277 344 366Q302 366 262 414Q93 662
72 662V674Q72 685 84 685Q37 785 37 886Q37 1098 179 1324Q318 1487 380 1501Q380 1541 534 1584Q534 1608 652 1631ZM474 898Q474 816 628 816Q661 816 687 1052Q542 1052 522 981L474 898Z" />
<glyph unicode="A" glyph-name="A" horiz-adv-x="1488" d="M769 1619Q863 1619 899 1525Q899 1493 935 1454Q935 1442 923 1442L935 1418Q935 1406 923 1406L994 1182L982 1123Q1051 924 1171 709Q1207 641 1207 567Q1236 567 1266 425Q1278 425 1278 413L1266
390Q1311 369 1326 304Q1351 269 1361 238Q1381 162 1401 87V39L1342 27H1330Q1236 27 1203 281Q1167 306 1112 532Q1093 532 1029 733Q1029 745 970 780L947 768H911Q911 789 876 803Q864 803 864 792Q775 815 698 815H687Q660 815 639 803Q616 815 604 815Q604
792 580 792H509L462 827H450L230 240V193H207L226 154L201 119Q183 119 148 63H124Q65 63 53 110Q111 284 179 344L167 368L203 415L191 474Q243 474 261 555Q285 668 332 780Q347 851 367 851L356 874V898H379L367 922L438 1064L426 1087Q426 1107 616 1465Q642
1465 698 1548Q687 1548 687 1560Q715 1560 769 1619ZM474 922L486 898Q543 922 651 945H734Q825 945 947 863H958Q888 1006 840 1300Q794 1366 793 1418Q642 1340 497 945Q497 922 474 922Z" />
<glyph unicode="B" glyph-name="B" horiz-adv-x="1062" d="M426 1761Q521 1761 521 1690H533Q552 1737 616 1737H663Q899 1602 899 1536Q953 1528 970 1265L958 1241Q982 1202 982 1182H970L982 1158V1134Q943 1024 923 1004Q891 913 805 768V733Q876 697 888
697L876 638Q935 602 958 602V532Q958 505 947 484Q958 461 958 449Q958 390 852 283Q841 234 687 153Q687 103 438 70Q438 59 426 59Q403 59 403 82Q380 70 367 70Q344 82 332 82Q332 59 308 59Q308 90 143 118Q89 210 60 437V449Q60 508 84 508Q84 520 72 520Q107
767 166 1028H178L166 1052L237 1288L226 1312Q261 1368 296 1525Q332 1586 332 1690V1702Q353 1702 403 1737Q426 1737 426 1761ZM533 1619Q533 1559 438 1383Q432 1320 367 1229Q379 1206 379 1194Q330 1194 261 744Q261 591 226 591L237 567Q226 483 226 472Q237
450 237 437Q226 416 226 390L261 295V260Q273 260 273 212H379Q391 212 391 201Q712 328 758 425Q793 434 817 508Q774 638 675 638Q675 685 639 685L568 650Q548 662 521 662H509V638H426Q426 665 379 709Q367 730 367 756Q391 756 391 792H438Q639 837 639 898Q729
960 781 1134Q781 1174 817 1217Q817 1372 769 1501H722L675 1442H663Q663 1499 604 1525Q544 1619 533 1619Z" />
<glyph unicode="C" glyph-name="C" horiz-adv-x="1393" d="M958 1655H1029Q1041 1655 1077 1584H1089Q1077 1561 1077 1548V1513Q1050 1513 1041 1454Q1053 1454 1053 1442Q995 1442 817 1324Q686 1278 675 1253Q651 1236 651 1217L627 1229Q627 1205 568 1170Q568
1155 474 1087L438 1040Q320 939 285 792Q202 591 190 496Q190 384 367 295H426Q426 248 438 248L462 260Q562 224 604 224H710Q737 224 758 236Q778 224 805 224Q927 236 947 236Q947 224 958 224Q962 248 982 248H994L1018 236Q1021 260 1041 260L1065 248Q1077
295 1136 295H1195V248H1207Q1207 307 1313 307Q1313 280 1301 260Q1313 239 1313 212L1301 165L1278 177Q1278 124 970 82H923L888 59H840Q808 59 769 82Q769 59 746 59L675 70Q655 59 616 59L604 82Q592 82 592 70Q471 70 249 165Q60 287 60 472V532Q155 929
320 1134V1146H332L356 1134Q356 1207 415 1229Q415 1252 663 1406Q805 1498 805 1513Q781 1513 781 1548Q781 1584 888 1607Q888 1596 899 1596Q899 1611 958 1655Z" />
<glyph unicode="D" glyph-name="D" horiz-adv-x="1239" d="M202 1643H214Q273 1541 273 1513Q261 1490 261 1477Q285 1474 285 1454V1371Q249 1252 249 1217L226 1229Q226 1217 214 1217L237 1087Q214 990 178 744L202 602Q187 457 166 425Q192 425 202 319Q190
319 190 307Q217 307 237 271V260L261 271H344Q698 334 698 413Q723 413 864 532Q1029 738 1029 898V945Q1029 1115 828 1205Q763 1271 533 1347V1371H521V1347H497Q497 1383 474 1383V1371Q367 1409 367 1430Q367 1454 332 1454Q373 1525 391 1525H474Q572 1442
722 1442Q722 1383 805 1383Q815 1358 982 1253Q1159 1110 1159 957Q1148 934 1148 922L1159 898L1136 839L1148 815Q1011 449 935 449Q885 365 698 248Q527 165 273 118Q60 118 60 331H72L60 354V401Q60 413 72 413L60 437Q60 464 72 484Q60 548 60 591V650Q60
662 72 662L60 685V697Q60 709 72 709Q72 721 60 721L72 780V874Q72 886 84 886L72 910V993Q76 1016 95 1016Q95 1028 84 1028Q101 1383 131 1383L119 1406V1442Q119 1454 131 1454Q107 1514 107 1548Q143 1620 143 1631L166 1619L202 1643Z" />
<glyph unicode="E" glyph-name="E" horiz-adv-x="1370" d="M261 1572H273Q344 1534 344 1477Q453 1513 545 1513V1489H557V1525Q592 1525 592 1513Q814 1560 852 1560Q946 1560 1029 1430Q1029 1395 1053 1395V1371Q1053 1347 1029 1347H1018Q941 1395 899 1395H876Q849
1395 828 1383H793Q793 1368 722 1359V1371Q568 1341 568 1324H557Q534 1335 521 1335Q521 1303 356 1288Q356 1262 367 1241L356 1217L367 1194Q356 1171 356 1158L367 1134Q367 1123 356 1123Q379 1019 379 957L367 933Q379 913 379 886V851H486Q512 851 533
863Q545 863 545 851L604 863H639Q639 886 651 886Q734 848 734 792Q663 772 663 744Q639 744 639 768L616 756L545 768Q498 756 462 733H438V756H415Q415 721 367 721V673L379 614L356 602Q391 236 474 236Q533 236 533 224Q545 224 545 236L604 224L663 236Q722
224 722 212L746 224H888Q899 224 899 212Q922 224 935 224Q947 224 947 212L1006 224Q1032 224 1053 212L1077 224L1148 212V260H1171Q1290 168 1290 118V106Q1290 51 1100 35V47L1077 35Q1053 35 1053 70L1029 59Q1018 59 1018 70Q1009 59 817 47Q651 62 651
82L592 70H557Q545 70 545 82Q522 70 509 70L450 82Q450 70 438 70Q438 97 320 130Q320 153 261 189L249 260V461Q226 461 226 472L249 520L226 532L237 591V673H226Q196 650 166 650L178 626V602Q134 602 107 579H95Q72 579 60 685Q106 758 237 815Q237 827 249
827L237 910V1075H214V1134L202 1205Q214 1226 214 1253L202 1276Q214 1299 214 1312Q214 1361 190 1430Q202 1453 202 1465L190 1489Q190 1520 261 1560V1572Z" />
<glyph unicode="F" glyph-name="F" horiz-adv-x="1003" d="M521 1643Q542 1631 568 1631H651Q651 1618 663 1596Q675 1596 675 1607Q786 1596 888 1548Q888 1528 923 1489V1465H888Q770 1465 734 1501L710 1489H698V1513Q687 1513 687 1501L639 1513Q360 1513
214 1454Q237 1378 237 1371Q226 1371 226 1359Q249 1359 308 1194Q308 1099 379 1099Q400 1111 426 1111H438L462 1099V1123H545Q597 1170 616 1170Q616 1134 663 1134V1075Q663 1064 651 1064L663 1040V1028Q642 1028 557 993L533 1004L356 969Q379 781 379 768Q367
768 367 756H391V685L403 614Q391 595 391 555L403 532Q391 511 391 484V472Q394 413 415 413L403 331V283Q403 257 415 236L403 212Q415 189 415 177H403L415 153V118Q415 106 403 106L415 82Q415 56 332 35Q278 58 273 82V165Q273 260 285 390Q273 410 273 437H285L273
461V543L261 614Q273 635 273 662L261 709Q261 721 273 721Q237 981 190 981L166 969Q60 995 60 1028Q60 1075 202 1087V1111Q84 1375 84 1477V1501Q84 1553 143 1584V1596H155Q166 1596 166 1584Q251 1631 403 1631V1619L521 1643Z" />
<glyph unicode="G" glyph-name="G" horiz-adv-x="1476" d="M651 1808L710 1797H793Q805 1797 805 1785L828 1797Q857 1797 923 1749Q942 1749 1029 1643V1596Q1029 1560 935 1548Q858 1572 828 1572V1607L840 1666Q754 1687 722 1714Q592 1666 592 1619H557V1643H545L367
1406Q280 1279 214 1087H202V969Q202 957 190 957L202 933Q202 910 178 910Q190 887 190 874V839Q237 663 462 484Q500 484 580 425H592L616 437Q616 390 758 390Q758 425 793 425H828Q1006 518 1006 650V709Q891 709 758 780Q758 803 734 803V863Q746 898 805
898H817Q828 898 828 886L852 898Q936 889 1006 827H1041Q1065 827 1065 851L1124 839H1159Q1171 839 1254 863H1278L1313 839L1325 863Q1364 839 1396 839V827L1384 803H1396Q1396 741 1301 721Q1301 709 1290 709Q1250 709 1230 721L1159 709H1124V662Q1124 451
935 319V307H911Q899 307 899 319Q862 300 793 283Q746 289 746 319L722 307Q495 342 367 425Q344 454 344 472H320L296 461Q296 496 178 602Q84 770 84 803V886H60Q60 909 84 969V1004H107L95 1064V1134Q125 1134 155 1265Q181 1294 237 1442Q280 1485 403 1655Q431
1655 486 1726Q506 1737 533 1737L521 1761Q651 1794 651 1808Z" />
<glyph unicode="H" glyph-name="H" horiz-adv-x="979" d="M864 1797V1761L888 1773L899 1666Q888 1631 876 1631Q876 1619 888 1619Q860 1430 840 1430Q864 1382 864 1359Q845 1359 817 1276Q840 1273 840 1253L746 1016Q746 1004 758 1004Q748 874 734 874L746
851Q746 838 734 815Q746 751 746 709V685Q746 673 734 673L746 650L734 626Q758 622 758 602H734Q758 555 758 520L734 508L746 484L734 461Q758 457 758 437H734Q758 394 758 342L734 331L746 307L734 283Q758 280 758 260H734L769 141Q769 47 722 47Q722 35
734 35Q722 14 722 -12H687Q617 -12 592 106Q606 125 616 224Q616 236 604 236L616 295V378Q616 404 604 425Q616 446 616 472V543Q616 570 604 591Q616 685 627 685L616 709V910Q616 922 627 922Q616 945 616 957H604Q568 933 521 922L450 933Q372 933 273 851Q273
785 202 697Q202 685 214 685L202 626V543H178Q178 520 214 520L202 461V378H178Q178 342 214 342L202 283V201H178L190 177Q190 165 178 165L214 106Q214 52 95 35L60 82L72 106L60 165Q60 175 72 260L60 331H72L60 354Q60 363 72 425L60 508H72Q72 520 60 520Q60
529 72 591L60 650Q60 673 72 673L60 815V1052Q60 1064 72 1064Q72 1075 60 1075L72 1123Q84 1439 84 1513Q72 1548 60 1548L72 1607Q72 1620 60 1643Q60 1714 190 1726L226 1690L214 1666Q237 1628 237 1596L226 1548Q237 1528 237 1501L214 1442Q237 1438 237
1418Q202 1418 202 1335V1205Q202 1163 190 1099Q202 1076 202 1064L178 1004Q190 1004 190 993Q166 993 166 981Q178 958 178 945H166Q178 938 178 839H190Q256 997 344 1028Q483 1084 627 1111L639 1134V1253Q639 1279 651 1300L639 1324Q689 1584 722 1584L710
1607Q710 1651 769 1749Q776 1797 864 1797Z" />
<glyph unicode="I" glyph-name="I" horiz-adv-x="1169" d="M474 1666H533Q533 1607 651 1607H710Q710 1560 793 1560Q793 1553 828 1536L852 1548Q1065 1446 1065 1430L1053 1406Q1065 1386 1065 1359V1347L982 1324V1335Q982 1347 994 1347Q994 1399 639 1454Q639
1477 616 1477Q604 1477 568 1406Q580 1381 592 1300L568 1170L580 1146Q568 1075 557 1075L568 1052V1028H545V780Q545 650 509 650Q533 614 533 567H710Q710 549 734 520L758 532Q781 532 1006 437Q1066 390 1089 390V354H1077Q1065 354 1065 366L1041 354Q1029
354 1029 366Q1018 366 1018 354Q734 383 734 401Q722 401 722 390L639 401H580L521 390L533 366Q513 260 438 260H426Q391 260 379 390Q356 390 356 413Q304 390 166 390H155Q155 417 95 425Q95 443 60 472Q106 567 119 567H214V543Q252 567 285 567H403Q403 577
415 662L403 733L426 922Q415 996 415 1087H426Q426 1099 415 1099L426 1182V1418L415 1477H237Q195 1477 131 1465Q66 1465 60 1560L84 1572L72 1596Q72 1603 131 1655L190 1643H320Q363 1643 426 1631Q474 1637 474 1666Z" />
<glyph unicode="J" glyph-name="J" horiz-adv-x="1204" d="M214 1785L273 1773H426L486 1785L497 1761L521 1773H533Q545 1773 545 1761L663 1785V1761L722 1773Q923 1753 923 1737V1714H947V1737H970Q970 1678 1077 1678Q1077 1667 1124 1607V1560L1065 1548Q1021
1548 947 1596Q844 1607 769 1607H687Q675 1526 663 1501H687V1442Q695 1442 734 1288Q722 1267 722 1241L746 1229L734 1182L746 1016H734L746 993V957Q718 930 698 780Q690 780 627 614Q601 604 521 437Q486 437 474 378Q438 378 438 342Q438 329 403 283Q338
295 308 295L285 283Q178 283 143 425Q118 425 60 555V567L84 650H214Q214 614 249 614V602H214Q214 576 226 555L214 532Q252 437 273 437L320 425Q446 571 509 733Q616 931 616 1099L604 1123Q616 1146 616 1158Q568 1390 568 1442V1477Q542 1477 533 1525H521Q521
1536 533 1536Q517 1607 497 1607H320Q278 1607 214 1596Q149 1596 143 1690L166 1702L155 1726Q155 1733 214 1785Z" />
<glyph unicode="K" glyph-name="K" horiz-adv-x="1275" d="M244 1643Q336 1604 350 1560V1501Q350 1489 338 1489Q362 1429 362 1395H350L362 1371V1347Q338 1347 338 1336Q350 1313 350 1300H338L350 1276V1241Q350 1135 328 1040H338Q476 1170 528 1170Q610
1253 764 1336L776 1359H752V1371Q752 1430 812 1430L848 1454H918Q930 1454 966 1383H978L966 1359Q978 1339 978 1312Q954 1312 894 1229Q874 1229 788 1170Q764 1170 764 1146H740L718 1158Q718 1138 658 1111Q622 1081 622 1064L600 1075Q600 1055 446 934L410
886Q364 851 350 851V827Q350 795 646 709Q872 507 942 295Q962 295 1060 118Q1080 106 1108 106V71Q1088 71 1048 35Q1036 35 1036 47Q1024 47 1024 35Q920 35 824 272Q732 438 634 520Q590 559 470 591Q470 603 304 662V626Q308 543 328 543L316 484V354H338L328
331V248Q328 221 338 201L328 177Q338 154 338 142H328L338 118V82Q338 71 328 71L338 47Q338 20 256 0Q202 23 198 47V130Q198 240 208 331L186 532Q198 555 198 567L186 650L195 693Q184 717 172 741Q172 741 177 765Q177 766 178 795Q180 824 180 825Q180 834
198 863L186 886Q198 1028 208 1028L198 1052Q198 1061 208 1123Q208 1135 198 1135L208 1194V1336L198 1395H208Q198 1420 186 1501H198Q186 1507 186 1607Q206 1607 244 1643Z" />
<glyph unicode="L" glyph-name="L" horiz-adv-x="1228" d="M107 1596H131Q176 1596 237 1560Q237 1548 226 1525Q237 1460 237 1430H226L237 1406L226 1359Q237 1336 237 1324Q214 1320 214 1300V1288Q214 1262 226 1241Q214 1220 214 1194L226 1170L202 1123L214
1064Q214 1052 202 1052Q202 1039 214 1016L202 851L214 827Q202 806 202 780L214 697L202 673Q214 653 214 626V614Q214 602 202 602Q202 425 426 425H497L557 437V425Q725 484 923 484Q923 472 935 472Q939 496 958 496H970Q1102 496 1148 260L1112 236Q1088
236 1065 295Q989 331 947 331H923Q896 331 876 319Q864 319 864 331L698 295Q676 307 663 307Q663 287 486 260H474Q447 260 426 271Q404 260 391 260Q84 320 84 401Q95 472 107 472Q84 647 84 685L107 733Q84 733 84 756Q84 769 95 792Q84 875 84 933L95 957Q84
980 84 993H95Q84 1016 84 1028Q84 1041 95 1064L84 1134V1146Q87 1205 107 1205Q84 1249 84 1300V1406L72 1465Q84 1465 84 1477Q60 1477 60 1501Q60 1529 107 1596Z" />
<glyph unicode="M" glyph-name="M" horiz-adv-x="1488" d="M1077 1726H1112Q1112 1709 1183 1655Q1230 1332 1230 1241H1219Q1230 1223 1242 1087L1230 1040Q1242 976 1242 933L1230 886L1254 839L1242 815Q1242 803 1254 803L1242 744Q1242 732 1254 709L1242
685L1278 461Q1266 440 1266 413L1278 354L1266 331Q1301 271 1301 236V212L1290 189H1301L1372 248H1396Q1396 235 1408 212L1396 153L1408 130Q1408 63 1301 11H1266Q1203 11 1148 212Q1171 212 1171 236Q1148 236 1136 378H1148L1124 508Q1124 520 1136 520L1124
579V709L1112 768H1124L1112 792V803Q1112 839 1124 839Q1109 971 1100 1004Q1100 1016 1112 1016L1100 1134V1265L1077 1300L1089 1324L1077 1347L1089 1371L1077 1430Q1052 1430 1018 1324H1006Q1006 1215 805 685Q746 650 746 591Q716 591 687 567Q557 579 557
709Q538 749 497 957Q509 957 509 969Q486 969 474 1099Q486 1099 486 1111H462Q391 797 344 685L356 662Q324 520 296 484V461L320 425Q299 381 261 130H249L261 106V59L178 47H131Q60 76 60 165Q107 165 107 201Q95 223 95 236Q127 236 202 626H214L202 650Q338
1204 379 1253Q435 1418 486 1418H509Q539 1418 568 1312Q604 1312 651 922Q663 922 663 910L651 886Q666 780 698 780Q805 1079 805 1111L923 1442H947L935 1465V1501L1029 1690L1077 1726Z" />
<glyph unicode="N" glyph-name="N" horiz-adv-x="1488" d="M1266 1572Q1349 1572 1349 1548L1372 1560Q1408 1548 1408 1489Q1384 1485 1384 1465Q1396 1445 1396 1418Q1349 1418 1349 1324Q1327 1324 1313 1217Q1294 1168 1254 1004H1242Q1242 993 1254 993Q1246
922 1230 922L1242 898V886Q1242 874 1230 874Q1242 851 1242 839L1230 815L1242 792L1230 768Q1230 755 1242 733Q1207 514 1195 378Q1195 366 1207 366Q1151 23 1089 23Q1089 -7 1041 -24V-36L970 -12Q970 -24 958 -24Q958 1 616 733Q403 1155 403 1241H379Q356
1095 332 1064Q356 1060 356 1040V945Q356 919 344 898Q356 875 356 863Q316 863 285 697Q285 670 296 650L226 189H214Q226 153 237 153L226 94V47Q226 20 237 0Q237 -95 155 -95H143Q60 -95 60 -12Q79 -12 95 82L84 106Q84 138 131 295L119 319L131 342Q131 354
119 354Q131 449 155 449Q143 472 143 484Q178 606 178 673Q166 673 166 685H190Q166 724 166 744L190 756Q190 768 178 768Q190 890 214 969Q202 969 202 981H226Q226 1004 202 1004Q214 1146 237 1170Q214 1170 214 1194Q273 1321 308 1548Q438 1548 462 1477Q521
1417 521 1383Q497 1379 497 1359Q533 1359 533 1241V1217H557V1205Q557 1194 545 1194Q584 1091 616 1052V1040L604 1016Q643 1016 698 851Q687 851 687 839Q710 839 769 697Q794 697 840 543Q856 543 923 390Q954 368 1018 201H1041Q1092 622 1100 626H1112Q1112
638 1100 638Q1116 820 1124 851Q1124 863 1112 863L1124 922L1112 969H1124Q1124 981 1112 981Q1136 1134 1148 1134L1136 1158L1171 1229Q1159 1229 1159 1241H1183V1288L1266 1572Z" />
<glyph unicode="O" glyph-name="O" horiz-adv-x="1216" d="M367 1643Q462 1643 592 1513Q646 1513 935 1205Q935 1166 994 1099Q1036 972 1053 957Q1070 957 1100 792Q1112 792 1112 780Q1112 768 1100 768L1136 602H1124L1136 579V532Q1136 505 1124 484Q1124
472 1136 472Q1121 342 1100 342L1112 319Q1025 82 911 82Q911 59 769 35Q570 45 320 248Q320 275 261 295Q84 495 84 567Q60 567 60 614H72L60 638Q60 794 202 1099Q190 1099 190 1111Q210 1111 249 1146L237 1170V1182Q257 1186 344 1324Q433 1454 474 1454V1465Q344
1465 344 1560H332Q332 1603 367 1643ZM568 1406Q568 1333 521 1312Q459 1298 367 1146Q339 1131 273 957Q256 957 237 922V851Q208 851 202 803Q202 792 214 792Q202 685 190 685Q190 608 308 437Q325 437 344 366Q389 366 533 248Q610 201 746 189Q911 209 911
248L935 236H947L935 260Q935 278 982 307Q1018 441 1018 579Q1006 602 1006 614H1018Q956 949 852 1123Q743 1243 698 1312Q648 1312 580 1406H568Z" />
<glyph unicode="P" glyph-name="P" horiz-adv-x="920" d="M296 1607Q497 1575 568 1489Q667 1376 746 1253Q840 1104 840 969Q840 957 828 957L840 933V863Q784 685 722 685Q695 614 438 602V614L415 602Q332 611 332 626Q320 626 320 614Q231 638 226 638Q226
626 214 626L226 602V555Q226 543 214 543Q235 461 261 260L249 236L285 141Q273 35 226 35Q95 35 95 165V177L107 201Q84 201 84 224V236Q84 271 95 271L72 461Q81 508 95 508L84 532V614Q84 628 60 744Q107 744 107 851Q84 851 84 874V886Q107 915 107 933L95
993H107Q95 1016 95 1028Q99 1229 119 1229L107 1253Q107 1265 119 1265L107 1288Q107 1300 119 1300Q119 1313 107 1335Q122 1557 237 1596L296 1607ZM237 1312L261 1300Q237 1252 237 1229L249 1205Q226 1165 214 1040L226 1016L214 993L226 886Q214 803 214
744H226Q356 742 356 721L415 733H462Q474 733 474 721Q722 766 722 910Q710 933 710 945L722 969Q681 1167 486 1359Q387 1454 308 1454H296Q269 1454 237 1312Z" />
<glyph unicode="Q" glyph-name="Q" horiz-adv-x="1464" d="M1006 1891H1065Q1293 1891 1372 1253H1360Q1384 1214 1384 1194Q1384 1182 1372 1182L1384 1123L1372 1064Q1372 1052 1384 1052Q1384 871 1136 555Q1124 555 1124 543V520Q1140 520 1349 283Q1365 260
1384 260V236Q1384 208 1337 141Q1226 200 1018 449Q982 449 982 413H958L935 425Q935 395 888 378V366H876L852 378Q852 331 651 331L580 342L557 331Q231 423 155 567Q60 698 60 851Q78 1016 95 1016Q84 1039 84 1052Q102 1134 143 1134L131 1158Q131 1204 202
1300L296 1383Q454 1484 746 1536L769 1525Q808 1548 840 1548H852Q870 1548 935 1454Q935 1375 557 1359L486 1347Q486 1359 474 1359V1335L486 1312H462V1335Q362 1335 214 1052Q190 925 178 780L237 638Q342 494 521 449H545Q557 449 557 461L616 449H710Q935
494 935 532V555Q788 733 758 733Q710 792 710 815H651Q651 845 627 874V898L639 981H769Q769 960 911 815Q927 752 1041 638H1065Q1200 848 1230 993L1254 1004Q1254 1016 1242 1016L1254 1075V1205Q1254 1253 1230 1359H1254V1371Q1219 1371 1219 1430L1230 1489Q1193
1489 1136 1714Q1103 1785 1077 1785V1797Q1018 1797 970 1714V1702L947 1714H935V1702Q958 1702 958 1690Q923 1626 923 1584H911Q888 1584 888 1607V1714Q915 1714 923 1773Q944 1850 1006 1879V1891Z" />
<glyph unicode="R" glyph-name="R" horiz-adv-x="1121" d="M545 1714Q693 1714 746 1596Q788 1536 817 1454V1418Q823 1418 864 1288L852 1265Q876 1129 876 1075Q789 803 746 803L616 733H604V721Q636 721 698 602Q739 602 805 484Q881 447 911 378Q950 378 994
283Q982 283 982 271H994Q994 283 1006 283L1041 224V165Q1006 135 1006 118H970Q947 118 805 295Q712 348 663 437Q633 437 521 567Q497 634 403 685Q403 721 296 756Q296 744 285 744L296 721L261 579H285Q285 521 249 461Q285 461 285 437L273 390Q285 367 285
354H273L285 331V283Q285 271 273 271L285 248L273 189Q285 143 285 94Q214 87 214 23Q149 23 107 94V165Q107 192 119 212Q107 283 60 283V307Q111 307 119 354L107 378Q107 400 131 472Q131 484 119 484Q178 819 214 910L202 933Q226 982 226 1004Q214 1027 214
1040Q231 1087 249 1087Q249 1099 237 1099Q308 1428 438 1655Q510 1714 545 1714ZM568 1584Q530 1551 509 1465Q446 1380 379 1087Q361 1028 344 1028L356 1004L344 957Q344 907 426 886Q450 857 450 839H486Q512 839 533 851L557 839Q687 914 746 1087Q746 1099
734 1099L746 1158V1194Q726 1236 698 1371Q616 1570 568 1584Z" />
<glyph unicode="S" glyph-name="S" horiz-adv-x="1169" d="M781 1619Q997 1619 1089 1442V1430H1077L1089 1406V1371L1077 1312H1041V1335L1053 1359H1041Q1018 1359 1018 1324H994Q994 1395 923 1395L935 1418Q923 1418 923 1406Q758 1418 758 1430L734 1418Q707
1418 687 1430Q401 1363 356 1300Q273 1276 273 1253V1241Q329 1187 462 1111Q462 1089 604 993Q625 931 687 922Q852 711 852 425V342Q852 114 639 82Q627 82 627 94L568 82Q507 82 202 224Q139 366 119 366V413Q132 413 155 425Q308 413 308 342L426 260L450
271L509 236Q530 248 557 248Q557 221 616 212Q734 232 734 413H746L769 401V413Q743 413 722 543Q746 543 746 567Q715 567 663 768Q616 774 533 910Q545 910 545 922H533Q533 910 521 910Q361 1052 344 1052Q204 1136 202 1158Q119 1158 119 1194L95 1182Q60
1245 60 1276Q74 1329 155 1383Q155 1406 237 1454L261 1442Q276 1498 497 1572Q508 1572 616 1596Q616 1584 627 1584Q627 1607 781 1619Z" />
<glyph unicode="T" glyph-name="T" horiz-adv-x="1310" d="M592 1666Q663 1666 663 1560V1513Q663 1501 651 1501Q663 1481 663 1442L698 1465H710Q722 1465 722 1454L746 1465Q900 1438 947 1406L958 1430Q1127 1415 1230 1335L1219 1312V1241L1006 1300Q1006
1276 982 1276H970V1300H899Q888 1300 888 1312Q876 1312 876 1300Q676 1324 639 1324Q627 1265 616 1265L627 1241V1229Q627 1178 604 1134Q627 1131 627 1111V1052Q627 993 604 993Q616 970 616 957L604 851Q604 780 639 780L627 733Q627 720 639 697L627 626V591L639
532H627Q651 508 663 331H651Q675 292 675 271V236H687V189Q687 82 580 82H568Q527 82 497 390H509Q497 413 497 425Q497 500 486 733H497L474 839L486 910V957Q486 993 474 993Q486 993 486 1324Q465 1335 438 1335L356 1312H296L261 1335H249V1312H237Q226 1312
226 1324L202 1312H166Q101 1312 60 1383Q60 1416 95 1501H119Q292 1477 308 1477H320V1454Q375 1477 426 1477V1465L450 1477H462V1454L521 1465V1560H438V1584L486 1643L592 1666Z" />
<glyph unicode="U" glyph-name="U" horiz-adv-x="1405" d="M155 1690Q249 1671 249 1643V1596Q202 1548 178 1312L190 1288V1170Q190 1158 178 1158L190 1134Q190 1123 178 1123Q178 1111 190 1111Q190 1098 178 1075Q178 1068 190 922L178 874Q190 854 190 827H178Q202
788 202 756L190 733Q214 729 214 709L202 685Q252 604 285 496V461Q398 201 462 201L675 461Q714 602 769 602Q769 620 805 650Q805 662 793 662Q805 681 805 721L828 709Q828 721 840 721L828 744V756Q911 929 970 1146L994 1134Q994 1217 1029 1217V1241Q1029
1415 1136 1678H1148Q1254 1678 1254 1572Q1228 1442 1195 1442Q1207 1419 1207 1406Q1152 1274 1112 1040H1089L1100 1016Q1100 1004 1089 1004L1100 981V969Q1077 885 1077 874Q1089 874 1089 863H1065V803Q1041 775 1041 756V721H1029L1041 697L1029 614L1065
390Q1053 369 1053 342Q1077 339 1077 319L1065 295Q1089 295 1089 260H1100Q1139 310 1254 378V390H1266Q1290 390 1290 354L1313 366H1325V354L1230 212Q1207 212 1207 201V165Q1159 148 1112 70H1077V82L1053 70Q985 70 958 260Q947 285 911 496V638H888Q888
606 817 496Q817 446 722 331Q734 308 734 295L710 307Q639 224 639 201Q533 111 533 94Q503 94 426 70V82L403 70Q274 129 202 307L107 602Q84 614 72 614Q72 626 84 626L60 756Q72 834 72 910V933Q72 945 84 945Q60 1007 60 1194L72 1265Q72 1276 60 1276Q60
1690 155 1690Z" />
<glyph unicode="V" glyph-name="V" horiz-adv-x="1228" d="M1053 1726H1077Q1098 1726 1124 1619H1148Q1139 1465 1124 1465Q1148 1427 1148 1406Q1136 1406 1100 1335Q1065 1335 1065 1300H1041V1359H1018V1300Q994 1254 828 697Q805 697 805 650L817 626Q793
575 769 484Q752 482 710 342Q695 342 580 153Q559 141 533 141L545 118V106Q528 106 474 70Q376 70 344 260L308 342V366L320 390Q296 390 296 413Q296 425 308 425Q308 451 261 709H273Q261 756 237 792L249 839Q202 1145 202 1241V1335L190 1395Q202 1395 202
1406Q179 1418 166 1418L178 1477Q178 1507 131 1513V1536H155Q155 1584 95 1619Q95 1652 60 1666Q72 1714 131 1714V1643Q166 1643 166 1596Q174 1596 226 1655Q332 1613 332 1584Q367 1584 367 1560Q367 1536 344 1536L367 1430Q356 1407 356 1395L367 1335L356
1312L367 1241V1170H344L367 1052Q356 1029 356 1016L367 993L356 969Q379 931 379 910H367Q424 723 462 366H486V342Q450 342 450 319H474Q542 360 663 673H687V744Q746 870 840 1182L828 1205Q868 1245 899 1406Q937 1406 970 1690Q1014 1726 1053 1726Z" />
<glyph unicode="W" glyph-name="W" horiz-adv-x="1290" d="M1230 1726Q1360 1726 1360 1643Q1372 1622 1372 1596L1360 1548Q1384 1545 1384 1525V1513Q1372 1465 1313 1465Q1313 1501 1290 1501L1254 1454L1266 1395Q1207 1395 1159 1004Q1139 1004 1124 945Q1136
922 1136 910Q1119 910 1077 768H1065V721H1089V673Q1089 656 1053 638Q1065 615 1065 602Q1065 591 1018 532Q1053 532 1053 484Q978 240 923 130Q947 130 947 118Q914 47 852 47H840Q840 82 817 82V59Q764 59 722 307Q734 328 734 354L710 390V413L722 437Q698
437 663 496L675 555V579H651V685Q539 561 533 496Q512 449 438 401L450 378Q421 295 379 295Q379 189 308 189Q308 134 226 118Q214 82 155 82Q72 82 72 425Q84 425 84 437Q60 437 60 461Q84 499 84 520Q72 624 72 650L84 673Q72 694 72 721Q72 733 84 733L72
756V768Q72 780 84 780L72 803Q72 816 84 839L72 910Q76 933 95 933L84 957V1040Q84 1066 72 1087Q84 1146 95 1146L84 1170V1253L72 1324L84 1347Q84 1359 72 1359Q72 1487 166 1525Q273 1478 273 1383Q249 1172 202 981L214 910L202 851Q202 838 214 815L202
744Q202 705 214 685L202 614V520L214 378H202L214 354V342L202 319H214Q229 319 320 461Q320 480 592 874Q604 910 663 910H675Q793 795 793 638H781V626Q840 538 840 461Q828 461 828 449L852 437Q856 461 876 461L864 484V532H888V614Q911 634 982 993Q1003
1111 1029 1111Q1041 1111 1041 1123Q1041 1132 1029 1194Q1065 1252 1112 1442V1489Q1133 1489 1159 1584H1171L1159 1607Q1220 1726 1230 1726Z" />
<glyph unicode="X" glyph-name="X" horiz-adv-x="1074" d="M864 1749H923L970 1702L958 1678V1666L982 1678H994V1666Q994 1644 864 1548Q675 1287 675 1229Q651 1229 651 1217Q663 1194 663 1182L604 1146L616 1123Q616 1099 580 1099L592 1075Q533 1002 533
981Q533 881 639 614L627 591Q644 591 722 378Q710 378 710 366Q758 366 758 307Q797 278 817 212Q896 106 911 106Q941 106 947 59Q935 39 935 0H852Q852 0 841 36Q841 36 793 59L769 47H758Q758 64 698 153Q547 309 486 579H462L474 626Q438 720 438 744H415Q395
645 344 567L356 543Q245 125 226 106Q178 106 178 70H166L84 118L60 201Q74 201 107 295L95 319V331H119V401Q160 401 226 673Q261 673 356 922Q356 987 273 1134Q254 1217 226 1217L237 1241Q170 1296 166 1324H178Q178 1340 119 1418Q84 1480 84 1525V1548Q104
1548 143 1584H214Q308 1465 308 1371L367 1347V1312Q400 1248 434 1185L462 1134Q518 1281 554 1311Q572 1338 590 1365L620 1419L656 1461Q683 1498 710 1536Q740 1616 864 1749Z" />
<glyph unicode="Y" glyph-name="Y" horiz-adv-x="897" d="M722 1655L758 1631Q761 1655 781 1655H793Q817 1655 817 1596H805L817 1536V1501Q817 1418 781 1418L793 1395Q746 1260 746 1194Q722 1194 687 1064L663 1040Q663 1028 675 1028Q675 957 627 957V933H651V910Q624
910 616 839Q585 823 557 626Q521 499 509 496L521 472V461Q497 461 497 449Q430 70 379 70H320Q303 70 285 106V118Q285 144 379 461L474 803L497 815L486 839Q497 922 521 922L509 945Q536 990 557 1075V1087H545Q531 1020 379 945Q286 963 249 1004Q178 1186
143 1383Q84 1406 84 1489L60 1477V1536H72V1607L131 1596Q135 1619 155 1619Q202 1607 202 1560Q190 1560 190 1548Q232 1548 285 1489Q273 1489 273 1477Q296 1474 296 1454V1442L285 1418Q320 1418 320 1395V1383Q320 1371 308 1371Q336 1194 356 1194L344 1170V1146Q367
1117 367 1087Q402 1091 462 1194Q552 1324 568 1324L651 1501Q698 1629 698 1643L722 1655Z" />
<glyph unicode="Z" glyph-name="Z" horiz-adv-x="1322" d="M1100 1643L1148 1619V1643H1219Q1242 1639 1242 1619V1607L1230 1536L1242 1513Q1183 1336 1089 1241Q1089 1194 1053 1194V1229H1041Q1041 1154 1006 1111L876 945Q854 897 781 851Q781 820 734 803Q618
591 545 591Q489 566 450 472L426 461L403 472Q403 401 320 354Q320 319 285 319V295Q308 295 308 283L332 295L391 283Q575 319 592 319V307Q884 354 958 354Q985 295 1041 295V224Q1077 224 1077 201L1065 177Q1115 141 1136 141V118Q1124 82 1065 82Q936 153
911 153Q899 153 899 141L840 153H793L734 141V153L710 141H639Q627 141 627 153Q564 130 497 130V141Q425 118 403 118Q382 130 356 130Q333 118 320 118V130L296 118Q270 118 249 130L226 118Q115 118 60 201V260Q197 380 273 472Q344 503 344 555Q380 556 462
673Q597 751 627 851Q717 897 758 1028Q820 1028 911 1229Q931 1270 994 1312Q994 1351 1041 1418Q1041 1431 1053 1454Q908 1454 462 1371Q462 1359 450 1359H391V1324H367V1371Q344 1371 344 1300Q288 1300 226 1406Q196 1430 166 1430V1454Q166 1471 226 1489Q226
1542 521 1560L545 1548Q597 1572 781 1596L805 1584Q852 1607 888 1607L899 1584Q954 1607 1077 1631Q1077 1619 1089 1619Q1089 1643 1100 1643Z" />
<glyph unicode="[" glyph-name="bracketleft" horiz-adv-x="1003" d="M237 1643Q512 1595 545 1595Q551 1595 592 1607Q663 1599 663 1584L687 1595H758Q769 1595 769 1584Q813 1607 864 1607Q908 1607 923 1501Q887 1477 840 1465L817 1477Q736 1465 687 1465H651Q625
1465 604 1477Q583 1465 557 1465H497L426 1477Q406 1465 379 1465Q291 1489 285 1489Q269 1475 253 1460L248 1395Q248 1371 249 1359L260 1335L254 1311Q254 1311 260 1287L254 1239L260 1149L254 1095L260 1017Q248 969 237 922Q237 910 249 910L237 851V744Q237
733 226 733L237 709Q237 697 226 697Q226 685 237 685Q212 561 212 504Q212 492 224 492L212 434V398Q212 220 354 220Q484 206 484 184Q611 202 625 220Q637 220 637 208L661 220H673Q685 220 685 208Q733 232 756 232L767 208L791 220Q814 208 826 208V174Q646
42 582 42Q580 42 578 42Q566 42 566 54L507 42H484Q457 42 436 54L413 42L342 78Q319 66 306 66Q82 112 82 184Q70 184 70 196V232L82 256Q58 256 58 280V314H82V444Q82 456 93 456Q93 468 82 468L93 528V552Q98 812 119 839L107 863V886Q131 1152 131 1170V1194Q131
1205 143 1205L95 1359H119V1394H95V1406Q99 1430 119 1430L107 1454Q107 1643 237 1643Z" />
<glyph unicode="\" glyph-name="backslash" horiz-adv-x="1169" d="M195 1414Q212 1414 266 1344Q266 1332 254 1332Q294 1186 514 964Q563 884 609 858Q609 818 680 776Q680 758 763 682Q847 526 964 422Q1011 374 1023 244L1070 196L1058 172Q1082 114 1106
114Q1106 92 1035 54V42Q928 48 928 114Q907 114 834 314Q635 642 432 812Q330 940 278 976L160 1142Q77 1304 77 1332V1390L160 1402Q160 1390 172 1390Q175 1414 195 1414Z" />
<glyph unicode="]" glyph-name="bracketright" horiz-adv-x="1109" d="M950 1634Q986 1598 998 1504Q1009 1504 1009 1492Q986 1323 927 1196L938 1173L891 945H868L891 909Q891 830 868 696Q880 677 880 637Q880 625 868 625L880 602V590H856Q848 401 832 401Q844
266 891 164Q891 46 773 46Q761 46 761 58Q651 43 619 34L596 46Q585 46 501 34Q407 42 407 58L383 46H371Q359 46 359 58Q348 58 348 46L288 58H253L182 46L135 70Q112 58 99 58Q99 69 52 129V141Q52 176 194 200Q442 188 442 176L655 200V188Q714 203 714 223V259Q714
286 702 306Q714 389 726 389L714 413Q722 590 750 590Q750 602 738 602Q753 776 761 791L750 815Q764 994 785 1086Q785 1098 773 1098Q797 1194 820 1291L808 1315Q844 1381 844 1445H832Q597 1430 548 1397H513V1386H489V1409Q442 1397 406 1374V1397Q318 1374
312 1374Q312 1397 288 1397Q288 1386 276 1386Q276 1417 229 1445Q229 1551 336 1551H347L359 1527Q398 1551 430 1551H501L560 1539Q560 1575 572 1575Q611 1551 643 1551L678 1575L702 1563Q706 1587 726 1587H738L761 1575Q761 1598 891 1610Q891 1634 950
1634Z" />
<glyph unicode="^" glyph-name="asciicircum" horiz-adv-x="920" d="M462 1997Q592 1912 734 1607Q761 1607 769 1548Q758 1548 758 1536Q795 1524 840 1418Q840 1406 828 1406L840 1383V1312L828 1170H817L793 1182V1158H758V1205Q758 1285 687 1335Q687 1398
557 1607Q507 1726 474 1726L486 1749Q462 1749 462 1785H438Q438 1759 367 1655V1619L379 1596Q343 1596 237 1288L214 1300Q214 1253 190 1253Q60 1280 60 1359Q121 1506 202 1643Q202 1674 379 1962Q407 2006 462 2009V1997Z" />
<glyph unicode="_" glyph-name="underscore" horiz-adv-x="1263" d="M568 283V271L592 283H1100Q1112 283 1171 212L1159 189Q1183 185 1183 165Q1168 106 1148 106Q1089 106 1089 130L982 118Q903 118 793 141Q793 118 769 118H687Q675 118 675 130L651 118Q639
118 639 130L273 59V47L214 59Q214 35 190 35H155Q84 35 60 118L107 201V212H84V236Q95 271 155 271H166Q184 271 202 224Q354 236 568 283Z" />
<glyph unicode="`" glyph-name="grave" horiz-adv-x="601" d="M516 1162H447L117 1364Q84 1385 70 1404Q55 1424 55 1446Q55 1477 76 1495Q99 1514 129 1517Q138 1518 165 1505Q190 1493 225 1458L516 1162Z" />
<glyph unicode="a" glyph-name="a" horiz-adv-x="920" d="M722 993Q809 993 817 957V874Q789 803 781 803L793 780V768Q738 699 710 579Q690 496 675 496L687 472V461Q687 449 675 449Q675 437 687 437L675 378V354Q698 270 698 260V212Q828 212 840 141Q793 141
793 106H781Q769 106 769 118L746 106Q647 106 580 248H568V271Q568 331 545 413Q494 359 367 283V271H296V248L273 260H249L214 236H202V283H178L155 271Q155 286 84 331Q60 378 60 413Q60 620 107 697L95 721Q135 721 155 792Q221 858 308 874Q327 933 497 933Q497
945 663 945H710L722 993ZM568 851V815H557Q545 815 545 827Q385 827 273 709H249V697L261 673Q214 673 178 567Q178 555 190 555L178 472V401H249Q261 401 261 390L285 401L308 390Q308 407 415 461Q616 622 616 815Q604 838 604 851H568Z" />
<glyph unicode="b" glyph-name="b" horiz-adv-x="1050" d="M273 1785Q332 1713 332 1596Q320 1580 320 1536H332Q332 1477 308 1477Q320 1454 320 1442L308 1335Q320 1313 320 1300L296 1288Q308 1223 308 1194Q308 1029 273 933H285Q301 933 367 1016Q434 1075
557 1075Q676 1075 805 981Q970 839 970 733V614Q926 558 911 484Q866 484 781 331Q687 279 675 201L651 212H639Q639 134 438 70H332Q253 70 60 130V212Q107 212 107 248L95 307Q131 592 155 697V709Q143 730 143 756Q143 768 155 768Q155 780 143 780L166 886L155
910L166 969Q155 990 155 1016L178 1028Q178 1040 166 1040Q176 1170 190 1170Q190 1182 178 1182L190 1324V1371Q190 1383 202 1383L190 1406Q190 1418 202 1418L190 1442V1548Q190 1575 178 1596L190 1619Q190 1678 155 1678Q166 1785 273 1785ZM356 815Q367
792 367 780Q334 780 285 555Q285 543 296 543Q261 385 261 331V283L190 271V248Q231 177 249 177H356Q448 177 663 413Q822 611 840 697H852Q767 945 592 945Q592 953 557 969Q413 919 356 815Z" />
<glyph unicode="c" glyph-name="c" horiz-adv-x="1098" d="M568 993L698 957L722 969Q781 933 805 933Q844 957 876 957H888Q935 886 935 827Q923 780 864 780Q744 803 722 803Q722 792 710 792V827L687 815H675Q642 848 557 863Q532 853 426 839Q426 863 403
863Q296 769 296 756Q296 730 249 721Q202 595 202 555V508L249 378Q250 362 391 295H521Q595 295 958 413V378H970V401H994Q1018 398 1018 378V366L958 295Q660 165 616 165Q554 153 474 153Q320 153 190 260Q60 335 60 555Q60 710 190 874Q224 874 261 933Q384
981 497 981H509Q521 981 521 969L568 993Z" />
<glyph unicode="d" glyph-name="d" horiz-adv-x="979" d="M793 1726H852V1702L876 1714H888Q888 1702 876 1702Q899 1655 899 1619Q891 1465 876 1465L888 1442Q888 1383 864 1383L876 1359Q802 907 746 733L758 709V697Q758 646 734 602L746 532L734 508Q773
278 828 189Q842 189 888 153Q888 165 899 165V130Q891 130 828 118Q781 127 781 141L758 130Q710 147 710 165V201Q665 201 639 425H627Q610 337 450 201Q438 201 438 212Q423 201 379 201V212H367V189Q178 189 72 508Q60 572 60 614V709Q103 1016 296 1016L320
1004Q351 1004 367 1087H391Q422 1087 462 1016Q543 1004 592 1004H639Q639 1238 758 1702L793 1726ZM320 910Q320 891 249 851Q220 721 190 721V697Q190 670 202 650Q190 627 190 614Q190 515 273 390Q313 331 332 331Q464 331 533 543Q592 587 627 792V851L557
874Q515 863 509 863Q498 863 438 910H320Z" />
<glyph unicode="e" glyph-name="e" horiz-adv-x="1050" d="M687 1064Q710 1060 710 1040L734 1052Q762 1052 817 981H828Q840 833 840 815Q805 674 722 591Q620 503 497 461V472L474 461H438Q320 461 320 484L296 472H285L249 496H214L202 425Q249 425 249 401Q321
334 580 283Q753 260 769 260H840Q867 233 970 224V130Q947 130 947 106H935Q923 106 923 118L899 106H888Q876 106 876 118Q864 118 864 106Q563 106 391 177L367 165L166 271Q95 331 95 378Q95 395 60 413Q110 714 226 851Q249 851 249 874Q237 874 237 886Q276
886 332 957Q383 969 450 1004Q450 993 462 993V1004Q450 1004 450 1016Q450 1040 687 1064ZM568 933Q568 910 415 874L273 721Q273 692 237 662V638Q341 626 391 602Q616 621 616 685Q710 757 710 898H698Q687 898 687 933L580 922Q580 933 568 933Z" />
<glyph unicode="f" glyph-name="f" horiz-adv-x="1062" d="M521 1643H545Q571 1643 592 1631L616 1643Q982 1510 982 1324V1300Q958 1262 958 1241L876 1253V1312Q876 1315 876 1317Q877 1319 876 1322Q838 1437 806 1473H770L734 1477V1465Q639 1497 639 1525L616
1513H580L557 1525Q500 1443 474 1276H450Q450 1265 462 1265Q422 1028 403 1028Q426 968 426 945Q415 945 415 933Q426 933 426 922Q588 969 651 969L663 945L687 957Q734 957 852 886V851Q828 851 828 827H805V851Q785 827 627 815Q438 768 438 744V733L450 662L438
638Q453 533 462 508Q450 487 450 461V449Q450 422 462 401L450 378Q450 366 462 366L450 307V236L474 201Q462 178 462 165Q486 161 486 141V118H462L474 94Q474 73 403 35V11Q391 11 391 23L367 11H356Q356 35 296 70Q308 189 320 189L308 212L320 236Q320 248
308 248L320 307Q320 342 308 342L320 401V461L308 520Q320 520 320 532H285V602Q285 614 296 614L285 638V744H273L202 733Q147 733 60 839V863H107V839H166L237 886H273Q285 993 296 993Q296 1004 285 1004Q383 1619 438 1619L521 1643Z" />
<glyph unicode="g" glyph-name="g" horiz-adv-x="979" d="M474 1123Q521 1111 604 1111V1123H651Q675 1119 675 1099Q663 1076 663 1064Q687 1060 687 1040V957H651Q625 957 604 945Q508 1016 486 1016L462 1004L438 1016Q370 1016 332 898L344 874V851Q344 824
332 803Q344 781 344 768H332Q431 437 509 437Q509 413 568 413H580Q652 413 710 496V602Q714 626 734 626Q710 686 710 709L734 721Q722 803 710 803L722 863V957Q722 969 734 969L722 993Q724 1018 793 1064Q888 1008 888 993L864 933Q888 930 888 910L876 851Q888
828 888 815Q876 792 876 780L888 756L876 733L888 673Q888 661 876 638Q891 506 899 472Q888 452 888 425Q899 402 899 390Q876 386 876 366Q876 331 888 331L864 189L876 118Q848 -83 840 -83L852 -107Q835 -225 817 -225L828 -249Q821 -308 769 -308L781 -367Q535
-674 426 -674Q424 -698 296 -722Q296 -686 273 -686L249 -698Q249 -677 155 -627Q84 -499 84 -402Q95 -402 95 -391Q76 -391 60 -367Q80 -150 95 -142L84 -119Q125 -48 143 -48H166V-71L190 -60Q213 -60 237 -131Q214 -174 178 -332Q178 -444 261 -568Q325 -568
344 -603Q488 -559 663 -320Q663 -286 734 -107V-95Q734 -83 722 -83Q746 44 746 189V248Q769 248 769 260L758 283L769 307Q758 330 758 342Q746 342 698 283L639 295H533L497 319L474 307Q379 342 379 401Q327 401 296 508Q273 508 273 532V602Q222 602 202 780L214
803Q206 898 190 898Q249 1099 344 1099Q344 1116 474 1123Z" />
<glyph unicode="h" glyph-name="h" horiz-adv-x="1180" d="M202 1596L214 1572L237 1584Q308 1556 308 1536V1513Q308 1486 296 1465L308 1442L273 1324L285 1300L226 886Q237 863 237 851H226L237 827Q237 800 226 780Q237 760 237 721Q296 803 332 803Q388 863
474 863H533Q545 863 545 851L568 863H580Q592 863 592 851Q615 863 627 863L793 780Q793 724 864 685V650L852 626Q875 614 888 614V520Q931 520 947 331Q923 327 923 307V260Q927 236 947 236Q985 307 1053 307Q1053 342 1089 342L1100 283V248Q1061 248 982
141L994 118V106Q967 106 947 59V0Q891 -36 864 -36H828Q828 -12 793 -12L805 153Q805 179 793 283L805 366Q759 733 604 733H545Q518 733 497 721Q477 733 450 733Q450 718 344 650Q308 602 261 496Q285 457 285 425V201Q285 174 273 153Q285 133 285 106Q273
70 261 70L273 47V35Q221 -60 119 -60L60 11V47Q88 47 107 130Q107 141 95 141Q95 157 119 271L107 295Q119 318 119 331Q119 343 107 366Q107 379 119 401Q107 465 107 508V532Q107 543 119 543Q110 591 95 591Q119 685 119 815V874Q119 901 131 922Q119 984 107
1087L131 1170Q119 1191 119 1217V1229Q119 1256 131 1276Q119 1299 119 1312L131 1418Q72 1418 72 1454V1548Q84 1548 84 1536L107 1548L143 1525Q143 1584 166 1584Q189 1596 202 1596Z" />
<glyph unicode="i" glyph-name="i" horiz-adv-x="353" d="M178 1560H202Q202 1536 249 1501Q249 1489 237 1489Q249 1466 249 1454L237 1312L249 1288Q237 1269 237 1229L214 1241Q214 1217 190 1217H166Q107 1239 84 1347H95L84 1371V1383Q84 1395 95 1395L84
1418V1489Q84 1560 178 1560ZM143 1004H155Q187 963 261 933L273 863Q261 840 261 827Q261 815 273 815Q261 697 249 697Q249 685 261 685Q237 295 214 295L226 236V177Q202 150 202 94Q190 94 190 106L166 94H131L107 106Q107 82 84 82H72Q72 135 60 153Q72 234
72 283V366Q72 378 84 378Q84 390 72 390Q84 543 95 543Q95 555 84 555L95 638V827Q95 911 72 957Q103 957 143 1004Z" />
<glyph unicode="j" glyph-name="j" horiz-adv-x="849" d="M604 1477Q633 1477 710 1430V1359Q650 1312 592 1312Q521 1349 521 1371L533 1418V1454L604 1477ZM663 945H675Q769 902 769 827L746 815Q769 655 769 614Q769 591 746 532Q769 528 769 508Q769 425 746
425Q746 413 758 390Q734 150 734 47H722Q722 35 734 35Q710 -249 663 -249Q588 -320 497 -320V-308L474 -320H403L367 -296Q367 -320 344 -320Q344 -289 178 -261Q178 -232 119 -190H107L119 -166Q60 -142 60 -95L84 23H119Q143 23 166 -95Q203 -95 226 -142Q255
-142 308 -190Q344 -190 344 -178L403 -190Q568 -190 568 -131L557 -107Q560 -83 580 -83Q580 -71 568 -71Q584 84 592 106Q580 127 580 153V165H604Q604 192 592 212Q604 339 616 366Q604 387 604 413Q608 437 627 437Q596 815 568 815Q533 815 533 839V886Q592
886 592 933H616V910H639Q639 945 663 945Z" />
<glyph unicode="k" glyph-name="k" horiz-adv-x="979" d="M107 1690H143L226 1666V1619L237 1560H226L261 1489V1477H237V1418Q237 1379 226 1359L237 1288V1241Q237 1217 214 1217L226 1158L224 935Q271 969 317 1003Q317 1065 412 1098Q458 1174 576 1197Q576
1206 612 1232L600 1256Q604 1279 624 1279Q694 1255 694 1126Q583 1048 472 970Q472 951 342 828Q310 772 271 745Q319 709 367 673Q367 612 450 591Q607 437 639 437Q690 350 734 342Q735 306 888 177L899 94Q887 94 864 82Q742 82 687 153Q513 324 273 508V532H249V413L237
390Q261 386 261 366Q261 283 237 283L249 260L237 201Q261 197 261 177Q261 35 155 35Q84 50 84 236Q95 298 95 354Q95 365 84 449H95Q84 472 84 484L95 591Q72 591 72 614Q76 638 95 638L84 662V673Q84 685 95 685L84 709V827Q84 839 95 839Q72 912 72 933H84L72
957Q84 1008 84 1040H72Q86 1145 95 1170Q84 1193 84 1205L95 1229L84 1253L95 1312Q84 1335 84 1347V1383H72V1489Q72 1501 84 1501Q60 1540 60 1572Q60 1586 107 1690Z" />
<glyph unicode="l" glyph-name="l" horiz-adv-x="365" d="M143 1690H178Q222 1654 273 1395Q285 1395 285 1383Q273 1299 273 1288Q285 1265 285 1253Q261 1205 261 1170Q285 1166 285 1146V1134Q285 1123 273 1123L285 1099Q285 1087 273 1087L285 1064Q257 969
249 969L261 945Q261 939 249 898L261 874Q226 749 226 721V567Q226 540 214 520Q226 500 226 461Q214 357 214 342H237L214 307Q273 215 273 82L166 35Q99 35 60 437V484Q60 496 72 496Q72 508 60 508Q87 777 107 815L95 839L119 981Q119 993 107 993L119 1052V1158Q119
1170 131 1170L119 1194Q119 1205 131 1205L119 1229V1347L84 1501Q95 1501 95 1513Q78 1513 60 1548H84L60 1619Q60 1690 143 1690Z" />
<glyph unicode="m" glyph-name="m" horiz-adv-x="1180" d="M911 1099H947L994 1028Q1018 1011 1065 662L1053 602V520L1041 496Q1053 496 1053 484L1077 496H1100Q1100 390 1065 390L1077 366V295Q1077 283 1065 283L1077 260Q1041 193 1041 153L1006 177L994
153Q911 166 911 295Q923 316 923 342Q923 354 911 354L923 413V709Q899 818 899 886Q848 856 734 543Q712 454 687 437Q627 271 533 271Q462 271 462 425V484H486V496Q450 496 450 543H462Q443 630 426 768H403L415 744Q344 666 273 378L237 331L249 307V283Q234
283 190 224Q155 224 155 189Q107 195 107 224L84 212Q84 233 60 271L107 437Q95 460 95 472Q119 511 119 543V579Q162 579 178 827Q166 850 166 863Q190 863 190 886V1016Q190 1033 226 1052H249L332 1040Q320 978 320 969Q332 946 332 933Q320 913 320 886Q350
886 379 1004Q521 1004 521 886Q554 800 580 614Q568 567 568 532L592 520L710 839Q827 1068 911 1099Z" />
<glyph unicode="n" glyph-name="n" horiz-adv-x="979" d="M285 1146Q285 1123 332 1087V1016H367Q367 1093 580 1146Q632 1146 663 1087L687 1099Q784 1099 828 614Q837 555 876 555L888 496L876 437H899V413H876L888 390Q867 271 817 271Q718 271 710 390L722
413L710 437L722 461Q710 525 710 567Q722 567 722 579Q698 579 687 673L698 697Q675 735 663 827H675Q644 1028 580 1028Q486 1001 486 957Q378 803 367 803V827H356V815Q367 795 367 768Q261 610 261 378L273 354Q272 322 190 283H155Q86 310 60 378L119 508L107
532L166 945Q166 957 155 957Q155 1094 249 1146H285Z" />
<glyph unicode="o" glyph-name="o" horiz-adv-x="979" d="M474 1052Q568 1040 568 1016L592 1028Q752 1028 876 768Q899 659 899 638Q899 480 769 283Q750 283 722 236L592 94Q438 47 367 47Q158 109 84 271Q84 283 95 283Q72 326 72 378Q72 404 84 425Q72 446
72 472V496L84 520Q60 520 60 543Q135 898 214 898Q214 915 320 981Q320 993 356 993L344 1016L356 1040L415 1028Q438 1040 450 1040Q450 1028 462 1028L474 1052ZM166 520L178 496Q178 484 166 484Q166 189 426 189Q522 194 627 295Q627 335 710 401Q781 571
781 602V626Q781 830 580 933Q474 886 426 886Q237 820 237 733Q183 610 166 520Z" />
<glyph unicode="p" glyph-name="p" horiz-adv-x="968" d="M178 1040H237Q237 1000 308 981Q308 954 320 933Q308 870 308 827H320Q451 957 675 957Q769 957 864 768Q864 756 852 756L864 697V685L852 662H876Q876 612 888 532L840 413L852 342H828V331L840 271Q780
225 758 141Q695 94 675 94Q613 47 497 47V70H450Q396 70 320 130H308V94L320 70H296L308 47Q273 -78 273 -107V-261Q273 -287 261 -308Q273 -329 273 -355V-450H237Q249 -464 249 -521Q226 -524 226 -544L249 -603Q237 -674 226 -674L237 -698Q210 -769 190 -769H143Q131
-769 131 -757L107 -769H95Q78 -769 60 -722Q75 -568 95 -568L84 -544Q99 -485 119 -485L107 -462Q107 -450 119 -450L107 -426V-343Q107 -332 119 -332Q119 -320 107 -320Q134 -31 155 -12Q143 8 143 35Q143 47 155 47L143 106V177Q146 319 166 319L155 342Q178
454 178 520L166 543L178 567L155 638Q166 659 166 685Q166 694 155 756L178 803Q152 803 143 933Q190 989 190 1004Q178 1027 178 1040ZM320 425H332Q332 456 426 472L438 449Q435 417 379 390Q379 338 356 283Q356 177 509 177Q651 177 698 307Q720 413 734 413L722
472Q722 522 746 591L734 614V650H722V697Q687 839 616 839Q504 839 438 721Q344 670 344 496Q332 496 320 425Z" />
<glyph unicode="q" glyph-name="q" horiz-adv-x="873" d="M687 1040Q741 1017 746 993L734 933L746 910Q722 826 722 780L698 792L710 768Q710 756 698 756L710 733Q710 677 675 650L687 626Q651 510 627 390L639 366Q627 302 627 260L604 271V260H616Q616 248
604 248Q604 235 616 212Q604 0 580 0Q580 -12 592 -12L568 -225H580Q607 -207 698 -178V-201L722 -190H734L758 -201V-178H781Q781 -190 793 -213Q766 -213 758 -272Q735 -325 687 -355Q647 -437 580 -473Q580 -516 521 -544Q438 -535 438 -473Q450 -154 474 -154L462
-71V70Q480 85 497 212Q497 224 486 224Q497 351 509 378Q489 378 426 283Q413 283 332 212H237Q214 212 214 236L190 224H178Q148 251 95 331L72 413Q84 413 84 425Q60 425 60 449V472Q60 851 261 933H273L296 922Q317 933 344 933V922L367 933H403Q429 933 450
922L474 933Q545 919 545 815Q495 768 450 768Q360 803 344 803Q344 815 332 815Q265 815 226 685H190L202 662V614L190 543V508H178Q202 469 202 437H190Q219 342 285 342Q414 452 474 602Q506 709 533 709V744Q585 945 616 945L604 969Q621 1020 687 1040Z" />
<glyph unicode="r" glyph-name="r" horiz-adv-x="979" d="M190 1004H226Q226 992 237 969L261 981H273Q308 969 308 910V886Q265 807 249 721L226 709Q226 697 237 697Q214 601 202 472Q214 472 214 461Q202 461 202 449H214Q296 602 320 602Q361 708 474 792Q603
969 746 969Q888 957 888 839H876Q888 803 899 803L888 744V709H840Q808 709 793 827Q764 851 746 851Q639 822 639 756Q487 662 474 591Q385 478 332 366Q234 170 155 118Q60 118 60 295V496Q60 508 72 508Q72 520 60 520Q74 625 84 650Q72 650 72 662H107Q95
684 95 697Q126 945 143 945Q190 981 190 1004Z" />
<glyph unicode="s" glyph-name="s" horiz-adv-x="932" d="M651 969L675 981Q792 981 852 851V827H769Q730 827 687 863Q660 863 639 851L616 863Q505 863 379 792Q356 788 356 768V756Q397 688 557 591Q746 405 746 283Q726 283 675 201Q571 189 545 165H379L320
153Q320 177 308 177L285 165Q128 206 60 271V295Q95 334 95 354H107L131 342V366H143Q182 366 249 307Q261 307 261 319Q362 295 438 295Q604 303 604 342Q472 515 344 591Q304 638 261 638L166 756Q181 910 320 910Q344 974 651 993V969Z" />
<glyph unicode="t" glyph-name="t" horiz-adv-x="1003" d="M474 1560V1548L497 1560H509Q525 1560 568 1501V1477Q521 1286 497 1099L509 1075L497 1052Q507 1004 521 1004L545 1016L568 1004Q589 1016 616 1016V1004L746 1028Q766 1016 793 1016Q806 1016 828
1028Q923 1009 923 981V969Q843 922 793 922Q793 933 781 933Q781 886 568 886H497V874Q497 862 509 839L497 792Q509 714 509 638Q497 638 497 626Q533 626 533 543V437Q533 405 557 366L545 342Q557 224 580 201V141Q580 110 497 94Q391 109 391 141V295L379
366L391 390Q377 495 367 520Q379 543 379 555L367 579Q379 602 379 614L367 673H379L367 697V898H356L332 886L320 910L296 898Q274 910 261 910L237 898Q214 910 202 910Q202 886 178 886Q60 914 60 993Q82 1050 143 1075Q143 1087 155 1087Q193 1064 226 1064H249Q276
1064 296 1075Q344 1052 379 1052V1064Q379 1075 367 1075Q403 1372 403 1418Q391 1441 391 1454Q415 1454 438 1548Q461 1560 474 1560Z" />
<glyph unicode="u" glyph-name="u" horiz-adv-x="979" d="M663 1064Q691 1064 769 1016V1004Q769 993 758 993L769 969V886Q769 860 781 839Q781 827 769 827Q793 544 828 342Q828 279 899 224Q899 182 805 165Q805 195 722 260Q698 288 663 461H675Q663 481 663
508Q637 508 604 366Q576 366 557 295Q460 192 356 177L332 189L308 177Q60 177 60 484Q60 496 72 496L60 555Q66 721 84 721Q84 733 72 733L84 815V827L72 886Q93 886 119 1016L155 1040H202Q217 1040 261 969V957Q261 898 237 898L249 874Q249 815 214 815L226
792Q226 765 214 744Q226 724 226 697Q226 662 202 614Q202 602 214 602L202 555Q202 295 332 295H344Q381 295 426 366Q482 366 545 567Q568 567 568 591Q568 602 557 602Q572 701 604 744L592 768Q622 813 639 1040Q663 1040 663 1064Z" />
<glyph unicode="v" glyph-name="v" horiz-adv-x="979" d="M119 1111Q249 1111 249 981Q264 830 273 815H237V803Q268 803 296 543H285Q315 482 356 319Q418 248 426 248Q474 291 580 579Q568 579 568 591Q604 591 675 839Q761 1040 805 1040Q828 1052 840 1052L864
1040Q887 1052 899 1052V1040Q890 993 876 993L888 969V957Q875 953 710 567L722 543V532Q703 512 639 366Q651 343 651 331Q642 331 509 118Q471 94 450 94Q327 94 273 212Q202 328 202 390Q214 390 214 401Q158 401 131 744Q115 762 72 1004Q60 1004 60 1040Q119
1096 119 1111Z" />
<glyph unicode="w" glyph-name="w" horiz-adv-x="1334" d="M155 1016Q181 993 273 957Q273 939 296 910L285 851Q296 828 296 815H285L296 792V756Q296 707 308 626Q296 603 296 591Q320 587 320 567V555L308 532Q328 532 356 342L391 319Q501 561 533 602Q521
602 521 614Q649 827 687 827Q722 827 722 863L758 839Q761 863 781 863Q817 749 852 591H840L852 567V532H864V425H888Q940 712 982 756Q1079 1004 1195 1004H1207Q1236 981 1254 981Q1254 973 1207 898Q1087 675 1029 461V449Q1053 449 1053 437Q994 298 958
153Q935 153 911 118Q793 134 793 236Q781 236 781 248Q781 260 793 260Q758 378 710 662Q627 578 592 425Q489 153 403 153H379Q231 153 143 697V744Q95 744 95 768L107 792Q81 792 72 839H60V851Q155 989 155 1016Z" />
<glyph unicode="x" glyph-name="x" horiz-adv-x="1098" d="M379 1170H450Q477 1170 521 839H533Q592 767 592 733Q613 733 698 839Q769 872 769 933Q844 993 864 993Q879 1004 947 1004H958Q982 941 982 933Q982 847 888 827Q720 627 710 626Q710 563 758 508Q746
485 746 472Q869 320 888 283L1006 106L1018 47L958 0Q882 0 769 236Q683 342 675 342Q675 369 604 449V461H592Q557 440 438 224Q358 146 296 59Q270 59 249 23Q249 -9 178 -24Q60 -24 60 70V118Q108 118 285 319Q351 428 462 555L497 614V638Q476 638 379 827Q320
973 320 1016V1087Q379 1149 379 1170Z" />
<glyph unicode="y" glyph-name="y" horiz-adv-x="1003" d="M249 1004Q299 1004 332 922V874Q348 649 450 508Q559 425 568 425Q657 425 698 567Q765 945 817 945Q852 945 899 957Q923 918 923 886Q840 458 840 413Q852 390 852 378Q828 378 793 177V94Q737 -49
722 -225Q722 -261 698 -261Q710 -283 710 -296Q710 -379 675 -379V-391Q675 -456 616 -603Q552 -717 462 -745V-757H379Q202 -733 202 -639Q138 -574 95 -438Q72 -438 60 -367L84 -355L72 -332V-320H131Q261 -568 261 -592Q402 -663 426 -663Q529 -510 592 -296Q592
-284 580 -284Q627 22 687 248L675 271Q687 294 687 307H675L533 283L521 307L497 295Q214 492 214 638H226Q190 751 166 969Q210 1004 249 1004Z" />
<glyph unicode="z" glyph-name="z" horiz-adv-x="1086" d="M261 1134H320V1075L367 1028L415 1040Q424 1040 486 1028Q506 1040 533 1040Q537 1016 557 1016Q569 1016 592 1028Q632 1028 687 993Q709 1004 722 1004V993Q745 1004 758 1004Q817 1004 817 792Q765
645 710 602Q710 516 616 461Q615 438 509 378Q509 319 450 319Q387 236 344 236Q344 224 391 201Q503 224 533 248Q545 248 545 236L568 248Q579 248 663 236Q686 248 698 248V236L722 248Q907 248 1006 153V82Q987 82 958 59Q942 59 923 94L899 82H876Q864 82
864 94L840 82Q814 82 793 94Q772 82 746 82H722V106H710V82H663L639 94Q639 76 592 59L568 70Q464 35 308 23L285 35Q264 23 237 23H214L190 35V0H95Q60 55 60 82H72L60 106V130Q82 168 226 248Q345 348 367 390Q600 561 687 803V851Q687 863 639 886L616 874Q604
874 604 886Q432 872 332 851V863L308 851H296L178 898L166 981Q241 1037 261 1040L285 1028Q308 1040 320 1040V1052Q303 1052 273 1099H261V1134Z" />
<glyph unicode="{" glyph-name="braceleft" horiz-adv-x="767" d="M466 1736H501Q584 1736 584 1618H572Q489 1539 489 1500H478L454 1512Q454 1450 359 1299V1287L383 1252L359 1193Q371 1172 371 1145L359 1122Q383 1122 383 1086L371 1062L395 1015L418 1027H430Q430
1003 466 1003Q466 885 430 885Q395 885 395 873Q367 873 312 921Q312 873 265 873Q265 850 300 850L324 861Q347 850 359 850Q363 873 383 873Q383 846 454 838Q489 799 489 779Q443 661 407 661L418 637V578L395 542Q395 516 407 495Q395 474 395 448Q412 448
430 389H442L430 365Q430 344 513 247Q513 188 619 188Q619 149 643 129L667 140H679Q672 72 631 34L608 46H596L572 34Q572 82 430 152Q430 204 348 223Q281 400 253 400L288 542H265V684L277 708Q220 743 76 791Q76 814 52 814L64 897Q52 897 52 909H64L87 897L170
992Q217 1015 241 1015L229 1133V1193L241 1216H218Q218 1420 418 1630H430L418 1654V1713Q437 1713 466 1736Z" />
<glyph unicode="|" glyph-name="bar" horiz-adv-x="341" d="M166 1808V1785L190 1797H202Q210 1737 261 1737Q249 1666 237 1666L249 1643V1513Q249 1457 237 1395Q249 1349 249 1300Q249 1183 226 1099L237 1075Q237 1016 214 1016Q214 1004 226 1004Q226 992
214 969Q226 905 226 863Q226 850 214 827Q222 812 237 662Q226 639 226 626L237 602L214 555Q214 543 226 543Q214 454 202 425Q214 404 214 378V366Q214 350 131 295Q60 323 60 378L72 449Q72 458 60 520Q60 546 72 567Q60 667 60 733V851Q60 877 72 898Q60 919
60 945V1052H84L72 1075V1087Q72 1130 84 1194L72 1217Q95 1270 95 1371V1572Q95 1631 84 1749Q98 1749 166 1808Z" />
<glyph unicode="}" glyph-name="braceright" horiz-adv-x="767" d="M170 1655Q170 1643 253 1560Q253 1501 277 1501Q277 1518 312 1537H324Q324 1489 395 1489Q507 1344 525 1265L513 1241Q525 1202 525 1158H513V1099Q513 1087 501 1087L513 1064Q493 955 466
922V910H572Q572 883 631 875Q679 825 679 780V768Q592 674 525 674Q572 633 572 555Q557 366 537 366L560 307Q527 307 501 213Q449 99 336 35Q253 35 253 0L229 12H170Q170 35 147 35Q147 121 300 153Q300 189 348 224Q395 394 418 449L407 473V544L418 567Q253
567 241 662Q288 662 288 733L312 721Q378 756 442 756V780H430Q283 780 241 851H229V863Q257 863 277 922Q371 983 371 1229Q308 1395 277 1395Q209 1403 135 1489Q89 1513 52 1513Q56 1537 76 1537L64 1560V1596Q111 1596 135 1643Q147 1643 170 1655Z" />
<glyph unicode="~" glyph-name="asciitilde" horiz-adv-x="1038" d="M899 1312V1288L923 1300H935Q958 1296 958 1276V1229Q938 1229 864 1123Q841 1123 758 1016Q719 1016 710 969Q656 910 604 910H545Q442 950 403 1099Q391 1120 391 1146H379Q359 1146 214
922Q189 894 131 874Q60 891 60 933Q60 990 131 1016Q290 1275 379 1276Q498 1276 545 1099L557 1075H533V1064Q557 1064 557 1028H580Q601 1028 722 1158Q752 1158 769 1205Q790 1241 840 1265Q840 1273 899 1312Z" />
</font>
</defs>
</svg>
